×

¿Problemas para descargar con Mozilla, EDGE? Deshabilita la opción "Abrir vinculos en una pestaña nueva" tal como lo muestra ésta imagen.

Amigos Por Siempre (2017) REMUX 1080p Latino

841 vistas

Información de Amigos Por Siempre (2017) REMUX 1080p Latino

the upside 53286 poster

Datos de la película

  • Calidad: Full 1080p
  • Audio: Se especifica abajo de la Sinopsis
  • Subtitulos: Español Latino PGS
  • Resolución: 1920x1080p
  • Formato: MKV
  • Codec: H.264
  • Encoder: CinefiloCool
  • Mediainfo: Clic para Mostrar Datos Ver
  • Amigos Por Siempre (2017) REMUX 1080p Latino.mkv
    Format                      : Matroska
    Format version              : Version 4
    File size                   : 19.2 GiB
    Duration                    : 2 h 5 min
    Overall bit rate mode       : Variable
    Overall bit rate            : 21.9 Mb/s
    Movie name                  : CinemaniaHDD.Net
    Encoded date                : UTC 2019-05-14 06:33:29
    Writing application         : mkvmerge v30.1.0 ('Forever And More') 64-bit
    Writing library             : libebml v1.3.6 + libmatroska v1.4.9
    Attachments                 : CINEMANIAHD.png

    Video
    ID                          : 1
    Format                      : AVC
    Format/Info                 : Advanced Video Codec
    Format profile              : High@L4.1
    Format settings             : CABAC / 4 Ref Frames
    Format settings, CABAC      : Yes
    Format settings, ReFrames   : 4 frames
    Format settings, GOP        : M=3, N=24
    Codec ID                    : V_MPEG4/ISO/AVC
    Duration                    : 2 h 5 min
    Bit rate mode               : Variable
    Bit rate                    : 19.3 Mb/s
    Maximum bit rate            : 35.0 Mb/s
    Width                       : 1 920 pixels
    Height                      : 1 080 pixels
    Display aspect ratio        : 16:9
    Frame rate mode             : Constant
    Frame rate                  : 23.976 (24000/1001) FPS
    Standard                    : NTSC
    Color space                 : YUV
    Chroma subsampling          : 4:2:0
    Bit depth                   : 8 bits
    Scan type                   : Progressive
    Bits/(Pixel*Frame)          : 0.389
    Stream size                 : 17.0 GiB (88%)
    Title                       : Full HD1080p [Remux]
    Default                     : Yes
    Forced                      : Yes
    Color range                 : Limited
    Color primaries             : BT.709
    Transfer characteristics    : BT.709
    Matrix coefficients         : BT.709

    Audio #1
    ID                          : 2
    Format                      : AC-3
    Format/Info                 : Audio Coding 3
    Commercial name             : Dolby Digital
    Codec ID                    : A_AC3
    Duration                    : 2 h 5 min
    Bit rate mode               : Constant
    Bit rate                    : 640 kb/s
    Channel(s)                  : 6 channels
    Channel layout              : L R C LFE Ls Rs
    Sampling rate               : 48.0 kHz
    Frame rate                  : 31.250 FPS (1536 SPF)
    Bit depth                   : 16 bits
    Compression mode            : Lossy
    Stream size                 : 576 MiB (3%)
    Title                       : AC3_5.1_AMZN_Esp
    Language                    : Spanish
    Service kind                : Complete Main
    Default                     : Yes
    Forced                      : Yes

    Audio #2
    ID                          : 3
    Format                      : DTS XLL
    Format/Info                 : Digital Theater Systems
    Commercial name             : DTS-HD Master Audio
    Codec ID                    : A_DTS
    Duration                    : 2 h 5 min
    Bit rate mode               : Variable
    Bit rate                    : 1 902 kb/s
    Channel(s)                  : 6 channels
    Channel layout              : C L R Ls Rs LFE
    Sampling rate               : 48.0 kHz
    Frame rate                  : 93.750 FPS (512 SPF)
    Bit depth                   : 16 bits
    Compression mode            : Lossless
    Stream size                 : 1.67 GiB (9%)
    Title                       : DTS-HD_5.1_Bluray_Eng
    Language                    : English
    Default                     : No
    Forced                      : No

    Text #1
    ID                          : 4
    Format                      : PGS
    Muxing mode                 : zlib
    Codec ID                    : S_HDMV/PGS
    Codec ID/Info               : Picture based subtitle format used on BDs/HD-DVDs
    Duration                    : 2 h 4 min
    Bit rate                    : 50.4 kb/s
    Count of elements           : 3044
    Stream size                 : 45.0 MiB (0%)
    Title                       : Sub_Esp [PGS]
    Language                    : Spanish
    Default                     : No
    Forced                      : No

    Text #2
    ID                          : 5
    Format                      : PGS
    Muxing mode                 : zlib
    Codec ID                    : S_HDMV/PGS
    Codec ID/Info               : Picture based subtitle format used on BDs/HD-DVDs
    Duration                    : 1 h 59 min
    Bit rate                    : 24.2 kb/s
    Count of elements           : 2306
    Stream size                 : 20.6 MiB (0%)
    Title                       : Sub_Fre [PGS]
    Language                    : French
    Default                     : No
    Forced                      : No

    Menu
    00:00:00.000                : en:Chapter 01
    00:09:34.323                : en:Chapter 02
    00:23:35.122                : en:Chapter 03
    00:36:29.270                : en:Chapter 04
    00:55:40.628                : en:Chapter 05
    01:17:07.706                : en:Chapter 06
    01:33:05.371                : en:Chapter 07
    01:46:45.857                : en:Chapter 08
    01:58:26.432                : en:Chapter 09

  • Peso: 19.2 GiB

Sinopsis

Descargar Amigos Por Siempre (2017) REMUX 1080p Latino. Remake norteamericano del gran éxito del cine francés «Intocable» (2011), que aborda la relación que se desarrolla entre un parapléjico y un desempleado con antecedentes criminales que es contratado como asistente personal para ayudarle en el día a día.

Audio Español Latino AC3 5.1 Amazon – Ingles DTS-HD 5.1 Bluray

Ficha técnica

  • Titulo original: The Upside
  • Fecha de lanzamiento: 10-01-2019 (United States of America)
  • Director: Neil Burger
  • Género: Comedia, Drama, Remux

Video trailer de la película

Enlaces de descarga

Rip de Bluray

Descargar Amigos Por Siempre (2017) REMUX 1080p Latino




Aportes de DPeliculasHDmega la pass es:dpeliculashdmega.org Aportes de CinemaniaHD la pass es:cinemaniahdd.com
Guardado en : Comedia , Drama , Remux

Películas relacionadas

  • Un mundo extraño (2022) REMUX 1080p Latino

    Un mundo extraño (2022) REMUX 1080p Latino

    2022
    Un mundo extraño (2022) REMUX 1080p Latino

    1h 42m 2022

    Descargar Un mundo extraño (2022) REMUX 1080p. Un viaje a una tierra inexplorada y traicionera en la...

    Director: Thai Bettistea

    Género: Animación

    Actores: Reed Buck

  • Stromboli (2022) NF WEB-DL 1080p Latino

    Stromboli (2022) NF WEB-DL 1080p Latino

    2022
    Stromboli (2022) NF WEB-DL 1080p Latino

    1h 26m 2022

    Descargar Stromboli (2022) NF WEB-DL 1080p Latino. Sara, una mujer que se ha divorciado recientemente,...

    Director: Michiel van Erp

    Género: Drama

    Actores: Tim McInnerny

  • Infiesto (2023) NF WEB-DL 1080p Castellano

    Infiesto (2023) NF WEB-DL 1080p Castellano

    2023
    Infiesto (2023) NF WEB-DL 1080p Castellano

    1h 36m 2023

    Descargar Infiesto (2023) NF WEB-DL 1080p Castellano. Mientras el coronavirus trastoca sus vidas, dos...

    Director: Patxi Amezcua

    Género: Crimen

    Actores: Luis Zahera

  • Espiritu Libre (2023) NF WEB-DL 1080p Latino

    Espiritu Libre (2023) NF WEB-DL 1080p Latino

    2023
    Espiritu Libre (2023) NF WEB-DL 1080p Latino

    1h 49m 2023

    Descargar Espiritu Libre (2023) NF WEB-DL 1080p Latino. La película se basa en la increíble historia...

    Director: Sarah Spillane

    Género: Aventura

    Actores: Vivien Turner

descargar Amigos Por Siempre (2017) REMUX 1080p Latino Full 1080p 1080p gratis, Amigos Por Siempre (2017) REMUX 1080p Latino Full 1080p mega 1 link, Amigos Por Siempre (2017) REMUX 1080p Latino Full 1080p pelicula completa, descargar Amigos Por Siempre (2017) REMUX 1080p Latino Full 1080p gratis en mega.

Amigos Por Siempre (2017) REMUX 1080p Latino pelicula full hd, Amigos Por Siempre (2017) REMUX 1080p Latino mega latino, Amigos Por Siempre (2017) REMUX 1080p Latino 4k latino, Amigos Por Siempre (2017) REMUX 1080p Latino pelicula completa, Amigos Por Siempre (2017) REMUX 1080p Latino descargar gratis, descargar Amigos Por Siempre (2017) REMUX 1080p Latino pelicula latino, Amigos Por Siempre (2017) REMUX 1080p Latino 1 link mega, Amigos Por Siempre (2017) REMUX 1080p Latino 1 link google drive, Amigos Por Siempre (2017) REMUX 1080p Latino hd 1080p latino.
Comentarios 0