×

¿Problemas para descargar con Mozilla, EDGE? Deshabilita la opción "Abrir vinculos en una pestaña nueva" tal como lo muestra ésta imagen.

The UnXplained (2021) Segunda Temporada WEB-DL 1080p Latino

255 vistas

Información de The UnXplained (2021) Segunda Temporada WEB-DL 1080p Latino

Datos de la película

  • Calidad: 1080p
  • Audio: Español Latino AC3 2.0 - Ingles AC3 2.0
  • Subtitulos: No
  • Resolución: 1920x1080
  • Formato: MKV
  • Codec: H.264
  • Encoder: cinemaniahdd
  • Mediainfo: Clic para Mostrar Datos Ver
  • Inexplicable con William Shatner T02E01 WEB-DL 1080p Latino [CNMNHDD].mkv
    Format                      : Matroska
    Format version              : Version 4
    File size                   : 716 MiB
    Duration                    : 43 min 11 s
    Overall bit rate mode       : Variable
    Overall bit rate            : 2 318 kb/s
    Movie name                  : Inexplicable con William Shatner T02E01 - CinemaniaHDD.Net
    Encoded date                : UTC 2021-06-21 02:00:14
    Writing application         : mkvmerge v46.0.0 ('No Deeper Escape') 64-bit
    Writing library             : libebml v1.3.10 + libmatroska v1.5.2

    Video
    ID                          : 1
    Format                      : AVC
    Format/Info                 : Advanced Video Codec
    Format profile              : Main@L4
    Format settings             : CABAC / 1 Ref Frames
    Format settings, CABAC      : Yes
    Format settings, Reference  : 1 frame
    Codec ID                    : V_MPEG4/ISO/AVC
    Duration                    : 43 min 11 s
    Bit rate mode               : Variable
    Bit rate                    : 2 059 kb/s
    Maximum bit rate            : 8 000 kb/s
    Width                       : 1 920 pixels
    Height                      : 1 080 pixels
    Display aspect ratio        : 16:9
    Frame rate mode             : Constant
    Frame rate                  : 30.000 FPS
    Color space                 : YUV
    Chroma subsampling          : 4:2:0
    Bit depth                   : 8 bits
    Scan type                   : Progressive
    Bits/(Pixel*Frame)          : 0.033
    Stream size                 : 636 MiB (89%)
    Title                       : CinemaniaHDD.Net
    Language                    : Spanish
    Default                     : Yes
    Forced                      : No

    Audio #1
    ID                          : 2
    Format                      : AAC LC
    Format/Info                 : Advanced Audio Codec Low Complexity
    Codec ID                    : A_AAC-2
    Duration                    : 43 min 11 s
    Bit rate                    : 128 kb/s
    Channel(s)                  : 2 channels
    Channel layout              : L R
    Sampling rate               : 44.1 kHz
    Frame rate                  : 43.066 FPS (1024 SPF)
    Compression mode            : Lossy
    Stream size                 : 39.5 MiB (6%)
    Title                       : Español latino [CinemaniaHDD]
    Language                    : Spanish
    Default                     : Yes
    Forced                      : No

    Audio #2
    ID                          : 3
    Format                      : AAC LC
    Format/Info                 : Advanced Audio Codec Low Complexity
    Codec ID                    : A_AAC-2
    Duration                    : 43 min 11 s
    Bit rate                    : 128 kb/s
    Channel(s)                  : 2 channels
    Channel layout              : L R
    Sampling rate               : 44.1 kHz
    Frame rate                  : 43.066 FPS (1024 SPF)
    Compression mode            : Lossy
    Stream size                 : 39.5 MiB (6%)
    Title                       : Inglés [CinemaniaHDD]
    Language                    : English
    Default                     : No
    Forced                      : No

     

  • Peso: 716 MiB c/u Aprox ---- 12 GiB in 17 Chapters.

Sinopsis

Los productores de Alienígenas Ancestrales y William Shatner se unen en esta impactante serie donde científicos de primer nivel analizan los eventos más misteriosos junto a sus protagonistas: encuentros con OVNIs, desapariciones repentinas y posesiones diabólicas. ¿Qué hay de cierto en todos ellos?

Ficha técnica

  • Titulo original: The UnXplained
  • Fecha de lanzamiento: 19-07-2019 (US)
  • Género: Documental, Series

Video trailer de la película

Enlaces de descarga

Rip de Bluray

Descargar The UnXplained (2021) Segunda Temporada WEB-DL 1080p Latino




Aportes de DPeliculasHDmega la pass es:dpeliculashdmega.org Aportes de CinemaniaHD la pass es:cinemaniahdd.com
Guardado en : Documental , Series

Películas relacionadas

descargar The UnXplained (2021) Segunda Temporada WEB-DL 1080p Latino 1080p 1080p gratis, The UnXplained (2021) Segunda Temporada WEB-DL 1080p Latino 1080p mega 1 link, The UnXplained (2021) Segunda Temporada WEB-DL 1080p Latino 1080p serie completa, descargar The UnXplained (2021) Segunda Temporada WEB-DL 1080p Latino 1080p gratis en mega.

The UnXplained (2021) Segunda Temporada WEB-DL 1080p Latino pelicula full hd, The UnXplained (2021) Segunda Temporada WEB-DL 1080p Latino mega latino, The UnXplained (2021) Segunda Temporada WEB-DL 1080p Latino 4k latino, The UnXplained (2021) Segunda Temporada WEB-DL 1080p Latino pelicula completa, The UnXplained (2021) Segunda Temporada WEB-DL 1080p Latino descargar gratis, descargar The UnXplained (2021) Segunda Temporada WEB-DL 1080p Latino pelicula latino, The UnXplained (2021) Segunda Temporada WEB-DL 1080p Latino 1 link mega, The UnXplained (2021) Segunda Temporada WEB-DL 1080p Latino 1 link google drive, The UnXplained (2021) Segunda Temporada WEB-DL 1080p Latino hd 1080p latino.
Comentarios 0