×

¿Problemas para descargar con Mozilla, EDGE? Deshabilita la opción "Abrir vinculos en una pestaña nueva" tal como lo muestra ésta imagen.

The Untouchables (1987) Full HD 1080p Latino – CMHDD

173 vistas

Información de The Untouchables (1987) Full HD 1080p Latino – CMHDD

Datos de la película

  • Calidad: Full 1080p
  • Audio: Se especifica abajo de la Sinopsis
  • Subtitulos: Español Latino PGS
  • Resolución: 1920x1080p
  • Formato: MKV
  • Codec: H.264
  • Encoder: Dracarys
  • Mediainfo: Clic para Mostrar Datos Ver
  • Format                      : Matroska
    Format version              : Version 4
    File size                   : 4.43 GiB
    Duration                    : 1 h 59 min
    Overall bit rate            : 5 310 kb/s
    Movie name                  : The Untouchables (1987) Full HD 1080p Latino - CMHDD
    Encoded date                : UTC 2021-06-15 05:11:46
    Writing application         : mkvmerge v56.1.0 ('My Friend') 64-bit
    Writing library             : libebml v1.4.2 + libmatroska v1.6.4

    Video
    ID                          : 1
    Format                      : AVC
    Format/Info                 : Advanced Video Codec
    Format profile              : High@L4.1
    Format settings             : CABAC / 4 Ref Frames
    Format settings, CABAC      : Yes
    Format settings, Reference  : 4 frames
    Codec ID                    : V_MPEG4/ISO/AVC
    Duration                    : 1 h 59 min
    Bit rate                    : 4 436 kb/s
    Width                       : 1 920 pixels
    Height                      : 1 080 pixels
    Display aspect ratio        : 16:9
    Frame rate mode             : Constant
    Frame rate                  : 23.976 (24000/1001) FPS
    Color space                 : YUV
    Chroma subsampling          : 4:2:0
    Bit depth                   : 8 bits
    Scan type                   : Progressive
    Bits/(Pixel*Frame)          : 0.089
    Stream size                 : 3.70 GiB (84%)
    Writing library             : x264 core 157 r2935 545de2f
    Encoding settings           : cabac=1 / ref=4 / deblock=1:0:0 / analyse=0x3:0x133 / me=tesa / subme=11 / psy=1 / psy_rd=1.00:0.00 / mixed_ref=1 / me_range=24 / chroma_me=1 / trellis=2 / 8x8dct=1 / cqm=0 / deadzone=21,11 / fast_pskip=0 / chroma_qp_offset=-2 / threads=24 / lookahead_threads=6 / sliced_threads=0 / nr=0 / decimate=1 / interlaced=0 / bluray_compat=0 / constrained_intra=0 / bframes=16 / b_pyramid=2 / b_adapt=2 / b_bias=0 / direct=3 / weightb=1 / open_gop=0 / weightp=2 / keyint=240 / keyint_min=24 / scenecut=40 / intra_refresh=0 / rc_lookahead=60 / rc=crf / mbtree=1 / crf=20.0 / qcomp=0.60 / qpmin=0 / qpmax=69 / qpstep=4 / vbv_maxrate=62500 / vbv_bufsize=78125 / crf_max=0.0 / nal_hrd=none / filler=0 / ip_ratio=1.40 / aq=1:1.00
    Default                     : Yes
    Forced                      : No
    Color range                 : Limited
    Color primaries             : BT.709
    Transfer characteristics    : BT.709
    Matrix coefficients         : BT.709

    Audio #1
    ID                          : 2
    Format                      : E-AC-3
    Format/Info                 : Enhanced AC-3
    Commercial name             : Dolby Digital Plus
    Codec ID                    : A_EAC3
    Duration                    : 1 h 59 min
    Bit rate mode               : Constant
    Bit rate                    : 224 kb/s
    Channel(s)                  : 2 channels
    Channel layout              : L R
    Sampling rate               : 48.0 kHz
    Frame rate                  : 31.250 FPS (1536 SPF)
    Compression mode            : Lossy
    Delay relative to video     : 1 s 0 ms
    Stream size                 : 191 MiB (4%)
    Language                    : Spanish
    Service kind                : Complete Main
    Default                     : Yes
    Forced                      : No

    Audio #2
    ID                          : 3
    Format                      : AC-3
    Format/Info                 : Audio Coding 3
    Commercial name             : Dolby Digital
    Codec ID                    : A_AC3
    Duration                    : 1 h 59 min
    Bit rate mode               : Constant
    Bit rate                    : 640 kb/s
    Channel(s)                  : 6 channels
    Channel layout              : L R C LFE Ls Rs
    Sampling rate               : 48.0 kHz
    Frame rate                  : 31.250 FPS (1536 SPF)
    Compression mode            : Lossy
    Stream size                 : 547 MiB (12%)
    Language                    : English
    Service kind                : Complete Main
    Default                     : No
    Forced                      : No

    Text
    ID                          : 4
    Format                      : PGS
    Muxing mode                 : zlib
    Codec ID                    : S_HDMV/PGS
    Codec ID/Info               : Picture based subtitle format used on BDs/HD-DVDs
    Duration                    : 1 h 54 min
    Bit rate                    : 30.0 kb/s
    Count of elements           : 2132
    Stream size                 : 24.5 MiB (1%)
    Language                    : Spanish
    Default                     : No
    Forced                      : No

    Menu
    00:00:00.000                : :Chapter 1
    00:02:43.914                : :Chapter 2
    00:06:43.862                : :Chapter 3
    00:08:17.372                : :Chapter 4
    00:10:40.098                : :Chapter 5
    00:16:00.585                : :Chapter 6
    00:19:39.261                : :Chapter 7
    00:23:13.309                : :Chapter 8
    00:29:40.404                : :Chapter 9
    00:34:01.081                : :Chapter 10
    00:36:01.076                : :Chapter 11
    00:41:03.336                : :Chapter 12
    00:43:27.772                : :Chapter 13
    00:47:33.100                : :Chapter 14
    01:01:35.275                : :Chapter 15
    01:08:18.303                : :Chapter 16
    01:17:17.842                : :Chapter 17
    01:18:34.877                : :Chapter 18
    01:22:12.845                : :Chapter 19
    01:26:22.928                : :Chapter 20
    01:35:58.920                : :Chapter 21
    01:39:09.944                : :Chapter 22
    01:47:21.352                : :Chapter 23
    01:55:30.257                : :Chapter 24

  • Peso: 4.43 GiB

Sinopsis

El joven agente del tesoro Elliot Ness llega a Chicago con la determinación de detener a Al Capone. No va a ser tarea fácil, puesto que Capone tiene a la policía en el bolsillo. Ness conoce a Jimmy Malone, un guardia veterano y probablemente el más honrado de todo el cuerpo, al que Ness pide ayuda en su cruzada contra Capone.

 

Latino: E-AC3 2.0  –  Ingles: AC3 5.1

Ficha técnica

Video trailer de la película

Enlaces de descarga

Rip de Bluray

Descargar The Untouchables (1987) Full HD 1080p Latino – CMHDD




Aportes de DPeliculasHDmega la pass es:dpeliculashdmega.org Aportes de CinemaniaHD la pass es:cinemaniahdd.com
Guardado en : Crimen , Drama , Historia , Suspenso

Películas relacionadas

  • El Perfumista (2022) NF WEB-DL 1080p Latino

    El Perfumista (2022) NF WEB-DL 1080p Latino

    2022
    El Perfumista (2022) NF WEB-DL 1080p Latino

    1h 36m 2022

    Descargar El Perfumista (2022) NF WEB-DL 1080p Latino. Para recuperar su sentido del olfato y el afecto...

    Director: Nils Willbrandt

    Género: Crimen

    Actores: Sólveig Arnarsdóttir

  • The Infernal Machine (2022) WEB-DL 1080p Latino

    The Infernal Machine (2022) WEB-DL 1080p Latino

    2022
    The Infernal Machine (2022) WEB-DL 1080p Latino

    1h 47m 2022

    Bruce Cogburn, un autor controversial y solitario, debe salir de su escondite cuando comienza...

    Director: Andrew Hunt

    Género: Suspenso

    Actores: Rocco Salata

  • Cobra Kai (2022) Temporada 5 NF WEB-DL 1080p Latino

    Cobra Kai (2022) Temporada 5 NF WEB-DL 1080p Latino

    2018
    Cobra Kai (2022) Temporada 5 NF WEB-DL 1080p Latino

    0h 30m 2018

    Descargar Cobra Kai (2022) Temporada 5 NF WEB-DL 1080p Latino. Cobra Kai tiene lugar treinta y cuatro...

    Director: Josh Heald

    Género: Action & Adventure

    Actores: Xolo Mariduena

  • Cobra Kai (2021) Temporada 4 NF WEB-DL 1080p Latino

    Cobra Kai (2021) Temporada 4 NF WEB-DL 1080p Latino

    2018
    Cobra Kai (2021) Temporada 4 NF WEB-DL 1080p Latino

    0h 30m 2018

    Descargar Cobra Kai (2021) Temporada 4 NF WEB-DL 1080p Latino. Todo comenzaba a salir bien y a resolverse...

    Director: Josh Heald

    Género: Action & Adventure

    Actores: Xolo Mariduena

descargar The Untouchables (1987) Full HD 1080p Latino – CMHDD Full 1080p 1080p gratis, The Untouchables (1987) Full HD 1080p Latino – CMHDD Full 1080p mega 1 link, The Untouchables (1987) Full HD 1080p Latino – CMHDD Full 1080p pelicula completa, descargar The Untouchables (1987) Full HD 1080p Latino – CMHDD Full 1080p gratis en mega.

The Untouchables (1987) Full HD 1080p Latino – CMHDD pelicula full hd, The Untouchables (1987) Full HD 1080p Latino – CMHDD mega latino, The Untouchables (1987) Full HD 1080p Latino – CMHDD 4k latino, The Untouchables (1987) Full HD 1080p Latino – CMHDD pelicula completa, The Untouchables (1987) Full HD 1080p Latino – CMHDD descargar gratis, descargar The Untouchables (1987) Full HD 1080p Latino – CMHDD pelicula latino, The Untouchables (1987) Full HD 1080p Latino – CMHDD 1 link mega, The Untouchables (1987) Full HD 1080p Latino – CMHDD 1 link google drive, The Untouchables (1987) Full HD 1080p Latino – CMHDD hd 1080p latino.
Comentarios 0