×

¿Problemas para descargar con Mozilla, EDGE? Deshabilita la opción "Abrir vinculos en una pestaña nueva" tal como lo muestra ésta imagen.

La Maldición de las Hermanas (2009) REMUX 1080p Latino

25 vistas

Información de La Maldición de las Hermanas (2009) REMUX 1080p Latino

Datos de la película

  • Calidad: Full 1080p
  • Audio: Se especifica abajo de la Sinopsis
  • Subtitulos: Español Latino PGS - Ingles PGS
  • Resolución: 1920x1080p
  • Formato: MKV
  • Codec: H.264
  • Encoder: CinefiloCool
  • Mediainfo: Clic para Mostrar Datos Ver
  • La Maldicion De Las Hermanas (2009) REMUX 1080p Latino-CMHDD.mkv Format                      : Matroska Format version              : Version 4 File size                   : 21.3 GiB Duration                    : 1 h 27 min Overall bit rate mode       : Variable Overall bit rate            : 34.9 Mb/s Movie name                  : The Uninvited (2009) CinemaniaHDD.Net Encoded date                : UTC 2023-01-20 02:26:34 Writing application         : mkvmerge v56.1.0 ('My Friend') 64-bit Writing library             : libebml v1.4.2 + libmatroska v1.6.4 Attachments                 : CINEMANIAHD.png Video ID                          : 1 Format                      : AVC Format/Info                 : Advanced Video Codec Format profile              : High@L4.1 Format settings             : CABAC / 2 Ref Frames Format settings, CABAC      : Yes Format settings, Reference  : 2 frames Codec ID                    : V_MPEG4/ISO/AVC Duration                    : 1 h 27 min Bit rate mode               : Variable Bit rate                    : 30.9 Mb/s Width                       : 1 920 pixels Height                      : 1 080 pixels Display aspect ratio        : 16:9 Frame rate mode             : Constant Frame rate                  : 23.976 (24000/1001) FPS Color space                 : YUV Chroma subsampling          : 4:2:0 Bit depth                   : 8 bits Scan type                   : Progressive Bits/(Pixel*Frame)          : 0.621 Stream size                 : 18.8 GiB (88%) Title                       : REMUX HD1080p [CinemaniaHDD] Default                     : Yes Forced                      : No Audio #1 ID                          : 2 Format                      : AC-3 Format/Info                 : Audio Coding 3 Commercial name             : Dolby Digital Codec ID                    : A_AC3 Duration                    : 1 h 27 min Bit rate mode               : Constant Bit rate                    : 256 kb/s Channel(s)                  : 2 channels Channel layout              : L R Sampling rate               : 48.0 kHz Frame rate                  : 31.250 FPS (1536 SPF) Compression mode            : Lossy Stream size                 : 160 MiB (1%) Title                       : Español Latino [CinemaniaHDD] Language                    : Spanish Service kind                : Complete Main Default                     : Yes Forced                      : No Audio #2 ID                          : 3 Format                      : MLP FBA Format/Info                 : Meridian Lossless Packing FBA Commercial name             : Dolby TrueHD Codec ID                    : A_TRUEHD Duration                    : 1 h 27 min Bit rate mode               : Variable Bit rate                    : 3 094 kb/s Maximum bit rate            : 4 845 kb/s Channel(s)                  : 6 channels Channel layout              : L R C LFE Ls Rs Sampling rate               : 48.0 kHz Frame rate                  : 1 200.000 FPS (40 SPF) Bit depth                   : 24 bits Compression mode            : Lossless Stream size                 : 1.89 GiB (9%) Title                       : Ingles [CinemaniaHDD] Language                    : English Default                     : No Forced                      : No Audio #3 ID                          : 4 Format                      : AC-3 Format/Info                 : Audio Coding 3 Commercial name             : Dolby Digital Codec ID                    : A_AC3 Duration                    : 1 h 27 min Bit rate mode               : Constant Bit rate                    : 640 kb/s Channel(s)                  : 6 channels Channel layout              : L R C LFE Ls Rs Sampling rate               : 48.0 kHz Frame rate                  : 31.250 FPS (1536 SPF) Compression mode            : Lossy Stream size                 : 399 MiB (2%) Title                       : Ingles AC3 [CinemaniaHDD] Language                    : English Service kind                : Complete Main Default                     : No Forced                      : No Text #1 ID                          : 5 Format                      : PGS Muxing mode                 : zlib Codec ID                    : S_HDMV/PGS Codec ID/Info               : Picture based subtitle format used on BDs/HD-DVDs Duration                    : 1 h 26 min Bit rate                    : 23.3 kb/s Count of elements           : 1665 Stream size                 : 14.4 MiB (0%) Title                       : Español-PGS [CinemaniaHDD] Language                    : Spanish Default                     : No Forced                      : No Text #2 ID                          : 6 Format                      : PGS Muxing mode                 : zlib Codec ID                    : S_HDMV/PGS Codec ID/Info               : Picture based subtitle format used on BDs/HD-DVDs Duration                    : 1 h 20 min Bit rate                    : 26.6 kb/s Count of elements           : 1422 Stream size                 : 15.4 MiB (0%) Title                       : Ingles-PGS [CinemaniaHDD] Language                    : English Default                     : No Forced                      : No Text #3 ID                          : 7 Format                      : UTF-8 Codec ID                    : S_TEXT/UTF8 Codec ID/Info               : UTF-8 Plain Text Duration                    : 32 min 55 s Bit rate                    : 0 b/s Count of elements           : 5 Stream size                 : 132 Bytes (0%) Title                       : Forzados-SRT [CinemaniaHDD] Language                    : Spanish Default                     : Yes Forced                      : No Text #4 ID                          : 8 Format                      : UTF-8 Codec ID                    : S_TEXT/UTF8 Codec ID/Info               : UTF-8 Plain Text Duration                    : 1 h 20 min Bit rate                    : 38 b/s Count of elements           : 901 Stream size                 : 23.1 KiB (0%) Title                       : Español-SRT [CinemaniaHDD] Language                    : Spanish Default                     : No Forced                      : No Menu 00:00:00.000                : Chapter 01 00:06:48.491                : Chapter 02 00:11:23.557                : Chapter 03 00:15:41.273                : Chapter 04 00:21:41.174                : Chapter 05 00:26:11.403                : Chapter 06 00:30:11.392                : Chapter 07 00:38:12.498                : Chapter 08 00:45:52.541                : Chapter 09 00:50:54.217                : Chapter 10 00:57:32.574                : Chapter 11 01:06:08.798                : Chapter 12 01:12:09.074                : Chapter 13 01:19:41.193                : Chapter 14 01:22:28.985                : Chapter 15
  • Peso: 21.3 GiB

Sinopsis

Descargar La Maldición de las Hermanas (2009) REMUX 1080p Latino. Anna Rydell regresa a casa junto a su hermana -y mejor amiga- Alex, tras su estancia en un hospital mental. Pero su recuperación se pondrá en peligro por culpa de su cruel madrastra, de su padre ausente y de la presencia de un fantasma que habita en la casa… Remake americano de la película surcoreana «Janghwa, hongryeon», dirigida por Ji-woon Kim en 2003 y estrenada posteriormente en España bajo el título de «Dos hermanas».

Audio Español Latino AC3 2.0 Web – Ingles TrueHD 5.1 + AC3 5.1 Bluray

Ficha técnica

Video trailer de la película

Enlaces de descarga

Rip de Bluray

Descargar La Maldición de las Hermanas (2009) REMUX 1080p Latino


Aportes de DPeliculasHDmega la pass es:dpeliculashdmega.org Aportes de CinemaniaHD la pass es:cinemaniahdd.com
Guardado en : Remux , Terror

Películas relacionadas

  • Mi amigo el dragón (2016) REMUX 1080p Latino

    Mi amigo el dragón (2016) REMUX 1080p Latino

    2016
    Mi amigo el dragón (2016) REMUX 1080p Latino

    1h 43m 2016

    Descargar Mi amigo el dragón (2016) REMUX 1080p Latino. Durante años el Sr. Meacham, un viejo tallador...

    Director: Joe Nolan

    Género: Aventura

    Actores: William J. Rawbone

  • El discurso del Rey (2010) REMUX 1080p Latino

    El discurso del Rey (2010) REMUX 1080p Latino

    2010
    El discurso del Rey (2010) REMUX 1080p Latino

    1h 58m 2010

    Descargar El discurso del Rey (2010) REMUX 1080p Latino. El duque de York se convirtió en rey de Gran...

    Director: Tom Hooper

    Género: Drama

    Actores: Tony Earnshaw

  • La Ladrona De Libros (2013) REMUX 1080p Latino

    La Ladrona De Libros (2013) REMUX 1080p Latino

    2013
    La Ladrona De Libros (2013) REMUX 1080p Latino

    2h 11m 2013

    Descargar La Ladrona De Libros (2013) REMUX 1080p Latino. La novela de 550 páginas de la Segunda Guerra...

    Director: Elizabeth West

    Género: Drama

    Actores: Stephanie Stremler

descargar La Maldición de las Hermanas (2009) REMUX 1080p Latino Full 1080p 1080p gratis, La Maldición de las Hermanas (2009) REMUX 1080p Latino Full 1080p mega 1 link, La Maldición de las Hermanas (2009) REMUX 1080p Latino Full 1080p pelicula completa, descargar La Maldición de las Hermanas (2009) REMUX 1080p Latino Full 1080p gratis en mega.

La Maldición de las Hermanas (2009) REMUX 1080p Latino pelicula full hd, La Maldición de las Hermanas (2009) REMUX 1080p Latino mega latino, La Maldición de las Hermanas (2009) REMUX 1080p Latino 4k latino, La Maldición de las Hermanas (2009) REMUX 1080p Latino pelicula completa, La Maldición de las Hermanas (2009) REMUX 1080p Latino descargar gratis, descargar La Maldición de las Hermanas (2009) REMUX 1080p Latino pelicula latino, La Maldición de las Hermanas (2009) REMUX 1080p Latino 1 link mega, La Maldición de las Hermanas (2009) REMUX 1080p Latino 1 link google drive, La Maldición de las Hermanas (2009) REMUX 1080p Latino hd 1080p latino.
Comentarios 0