×

¿Problemas para descargar con Mozilla, EDGE? Deshabilita la opción "Abrir vinculos en una pestaña nueva" tal como lo muestra ésta imagen.

The Undoing (2020) Temporada 1 HMAX WEB-DL 1080p Latino

474 vistas

Información de The Undoing (2020) Temporada 1 HMAX WEB-DL 1080p Latino

Datos de la película

  • Calidad: WEBDL
  • Audio: Español Latino AC3 2.0 WEB-DL - Ingles AC3 5.1 WEB-DL
  • Subtitulos: Español Latino SRT- FORZADOS SRT
  • Resolución: 1920x1080
  • Formato: MKV
  • Codec: H.264
  • Encoder: cinemaniahdd
  • Mediainfo: Clic para Mostrar Datos Ver
  • The Undoing T01E06 HMAX WEB-DL 1080p Latino [CNMNHDD].mkv
    Format                      : Matroska
    Format version              : Version 4
    File size                   : 4.66 GiB
    Duration                    : 1 h 6 min
    Overall bit rate            : 9 970 kb/s
    Movie name                  : The Undoing T01E06 - CinemaniaHDD.Net
    Encoded date                : UTC 2020-11-30 02:22:07
    Writing application         : mkvmerge v51.0.0 ('I Wish') 64-bit
    Writing library             : libebml v1.4.0 + libmatroska v1.6.2

    Video
    ID                          : 1
    Format                      : AVC
    Format/Info                 : Advanced Video Codec
    Format profile              : High@L4
    Format settings             : CABAC / 4 Ref Frames
    Format settings, CABAC      : Yes
    Format settings, Reference  : 4 frames
    Codec ID                    : V_MPEG4/ISO/AVC
    Duration                    : 1 h 6 min
    Bit rate mode               : Constant
    Bit rate                    : 9 330 kb/s
    Nominal bit rate            : 10 000 kb/s
    Width                       : 1 920 pixels
    Height                      : 1 080 pixels
    Display aspect ratio        : 16:9
    Frame rate mode             : Constant
    Frame rate                  : 23.976 (24000/1001) FPS
    Color space                 : YUV
    Chroma subsampling          : 4:2:0
    Bit depth                   : 8 bits
    Scan type                   : Progressive
    Bits/(Pixel*Frame)          : 0.188
    Stream size                 : 4.36 GiB (94%)
    Title                       : CinemaniaHDD
    Default                     : Yes
    Forced                      : No
    Color range                 : Limited
    Color primaries             : BT.709
    Transfer characteristics    : BT.709
    Matrix coefficients         : BT.709

    Audio #1
    ID                          : 2
    Format                      : AC-3
    Format/Info                 : Audio Coding 3
    Commercial name             : Dolby Digital
    Codec ID                    : A_AC3
    Duration                    : 1 h 6 min
    Bit rate mode               : Constant
    Bit rate                    : 256 kb/s
    Channel(s)                  : 2 channels
    Channel layout              : L R
    Sampling rate               : 48.0 kHz
    Frame rate                  : 31.250 FPS (1536 SPF)
    Compression mode            : Lossy
    Stream size                 : 122 MiB (3%)
    Title                       : Español latino [CinemaniaHDD]
    Language                    : Spanish
    Service kind                : Complete Main
    Default                     : Yes
    Forced                      : No

    Audio #2
    ID                          : 3
    Format                      : AC-3
    Format/Info                 : Audio Coding 3
    Commercial name             : Dolby Digital
    Codec ID                    : A_AC3
    Duration                    : 1 h 6 min
    Bit rate mode               : Constant
    Bit rate                    : 384 kb/s
    Channel(s)                  : 6 channels
    Channel layout              : L R C LFE Ls Rs
    Sampling rate               : 48.0 kHz
    Frame rate                  : 31.250 FPS (1536 SPF)
    Compression mode            : Lossy
    Stream size                 : 184 MiB (4%)
    Title                       : Inglés [CinemaniaHDD]
    Language                    : English
    Service kind                : Complete Main
    Default                     : No
    Forced                      : No

    Text #1
    ID                          : 4
    Format                      : UTF-8
    Codec ID                    : S_TEXT/UTF8
    Codec ID/Info               : UTF-8 Plain Text
    Duration                    : 3 s 200 ms
    Bit rate                    : 37 b/s
    Count of elements           : 1
    Stream size                 : 15.0 Bytes (0%)
    Title                       : Forzados [CinemaniaHDD]
    Language                    : Spanish
    Default                     : Yes
    Forced                      : Yes

    Text #2
    ID                          : 5
    Format                      : UTF-8
    Codec ID                    : S_TEXT/UTF8
    Codec ID/Info               : UTF-8 Plain Text
    Duration                    : 1 h 2 min
    Bit rate                    : 52 b/s
    Count of elements           : 802
    Stream size                 : 24.4 KiB (0%)
    Title                       : Español latino [CinemaniaHDD]
    Language                    : Spanish
    Default                     : No
    Forced                      : No

    Text #3
    ID                          : 6
    Format                      : UTF-8
    Codec ID                    : S_TEXT/UTF8
    Codec ID/Info               : UTF-8 Plain Text
    Duration                    : 1 h 5 min
    Bit rate                    : 66 b/s
    Count of elements           : 1108
    Stream size                 : 31.9 KiB (0%)
    Title                       : Inglés [CC] [CinemaniaHDD]
    Language                    : English
    Default                     : No
    Forced                      : No

     

  • Peso: 4.66 GiB Aprox ---- 21.5 GiB in 6 Chapters.

Sinopsis

Grace Fraser es una terapeuta exitosa que está a punto de publicar su primer libro con un esposo devoto y un hijo pequeño que asiste a una escuela privada de élite en la ciudad de Nueva York. Semanas antes de que se publique su libro, se abre un abismo en su vida: una muerte violenta, un marido desaparecido y, en lugar de un hombre que Grace creía conocer, sólo una cadena de terribles revelaciones.

FINAL DE TEMPORADA

Ficha técnica

Video trailer de la película

Enlaces de descarga

Rip de Bluray

Descargar The Undoing (2020) Temporada 1 HMAX WEB-DL 1080p Latino




Aportes de DPeliculasHDmega la pass es:dpeliculashdmega.org Aportes de CinemaniaHD la pass es:cinemaniahdd.com
Guardado en : Drama , HBO , Series

Películas relacionadas

descargar The Undoing (2020) Temporada 1 HMAX WEB-DL 1080p Latino WEBDL 1080p gratis, The Undoing (2020) Temporada 1 HMAX WEB-DL 1080p Latino WEBDL mega 1 link, The Undoing (2020) Temporada 1 HMAX WEB-DL 1080p Latino WEBDL serie completa, descargar The Undoing (2020) Temporada 1 HMAX WEB-DL 1080p Latino WEBDL gratis en mega.

The Undoing (2020) Temporada 1 HMAX WEB-DL 1080p Latino pelicula full hd, The Undoing (2020) Temporada 1 HMAX WEB-DL 1080p Latino mega latino, The Undoing (2020) Temporada 1 HMAX WEB-DL 1080p Latino 4k latino, The Undoing (2020) Temporada 1 HMAX WEB-DL 1080p Latino pelicula completa, The Undoing (2020) Temporada 1 HMAX WEB-DL 1080p Latino descargar gratis, descargar The Undoing (2020) Temporada 1 HMAX WEB-DL 1080p Latino pelicula latino, The Undoing (2020) Temporada 1 HMAX WEB-DL 1080p Latino 1 link mega, The Undoing (2020) Temporada 1 HMAX WEB-DL 1080p Latino 1 link google drive, The Undoing (2020) Temporada 1 HMAX WEB-DL 1080p Latino hd 1080p latino.
Comentarios 2
  • Jose_E.T. - 02 noviembre, 2020

    Gracias por el 02! Excelente pagina y esta serie es genial…

  • Yam26 - 01 noviembre, 2020

    Gracias por el segundo episodio 🙂