×

¿Problemas para descargar con Mozilla, EDGE? Deshabilita la opción "Abrir vinculos en una pestaña nueva" tal como lo muestra ésta imagen.

The Underdoggs (2024) AMZN WEB-DL 1080p Latino

55 vistas

Información de The Underdoggs (2024) AMZN WEB-DL 1080p Latino

Datos de la película

  • Calidad:
  • Audio: Español Latino AC3 5.1 WEB-DL - Ingles AC3 5.1 WEB-DL
  • Subtitulos: Español Latino SRT- FORZADOS SRT
  • Resolución: 1920x1080
  • Formato: MKV
  • Codec: H.264
  • Encoder: cinemaniahdd
  • Mediainfo: Clic para Mostrar Datos Ver
  • The Underdoggs (2024) AMZN WEB-DL 1080p Latino [CNMNHDD].mkv
    Format                      : Matroska
    Format version              : Version 4
    File size                   : 5.86 GiB
    Duration                    : 1 h 36 min
    Overall bit rate            : 8 700 kb/s
    Movie name                  : Los Menospreciados (2024) [1080p] - CinemaniaHDD.Net
    Encoded date                : UTC 2024-01-26 00:44:08
    Writing application         : mkvmerge v56.1.0 ('My Friend') 64-bit
    Writing library             : libebml v1.4.2 + libmatroska v1.6.4

    Video
    ID                          : 1
    Format                      : AVC
    Format/Info                 : Advanced Video Codec
    Format profile              : High@L4
    Format settings             : CABAC / 4 Ref Frames
    Format settings, CABAC      : Yes
    Format settings, Reference  : 4 frames
    Codec ID                    : V_MPEG4/ISO/AVC
    Duration                    : 1 h 36 min
    Bit rate                    : 6 777 kb/s
    Width                       : 1 920 pixels
    Height                      : 960 pixels
    Display aspect ratio        : 2.000
    Frame rate mode             : Constant
    Frame rate                  : 23.976 (24000/1001) FPS
    Color space                 : YUV
    Chroma subsampling          : 4:2:0
    Bit depth                   : 8 bits
    Scan type                   : Progressive
    Bits/(Pixel*Frame)          : 0.153
    Stream size                 : 4.56 GiB (78%)
    Title                       : CinemaniaHDD
    Default                     : Yes
    Forced                      : No
    Color range                 : Limited
    Color primaries             : BT.709
    Transfer characteristics    : BT.709
    Matrix coefficients         : BT.709

    Audio #1
    ID                          : 2
    Format                      : AC-3
    Format/Info                 : Audio Coding 3
    Commercial name             : Dolby Digital
    Codec ID                    : A_AC3
    Duration                    : 1 h 36 min
    Bit rate mode               : Constant
    Bit rate                    : 640 kb/s
    Channel(s)                  : 6 channels
    Channel layout              : L R C LFE Ls Rs
    Sampling rate               : 48.0 kHz
    Frame rate                  : 31.250 FPS (1536 SPF)
    Compression mode            : Lossy
    Stream size                 : 441 MiB (7%)
    Title                       : Español Latino [CinemaniaHDD]
    Language                    : Spanish
    Service kind                : Complete Main
    Default                     : Yes
    Forced                      : No

    Audio #2
    ID                          : 3
    Format                      : E-AC-3
    Format/Info                 : Enhanced AC-3
    Commercial name             : Dolby Digital Plus
    Codec ID                    : A_EAC3
    Duration                    : 1 h 36 min
    Bit rate mode               : Constant
    Bit rate                    : 640 kb/s
    Channel(s)                  : 6 channels
    Channel layout              : L R C LFE Ls Rs
    Sampling rate               : 48.0 kHz
    Frame rate                  : 31.250 FPS (1536 SPF)
    Compression mode            : Lossy
    Stream size                 : 441 MiB (7%)
    Title                       : Español Latino / E-AC3 [CinemaniaHDD]
    Language                    : Spanish
    Service kind                : Complete Main
    Default                     : No
    Forced                      : No

    Audio #3
    ID                          : 4
    Format                      : E-AC-3
    Format/Info                 : Enhanced AC-3
    Commercial name             : Dolby Digital Plus
    Codec ID                    : A_EAC3
    Duration                    : 1 h 36 min
    Bit rate mode               : Constant
    Bit rate                    : 640 kb/s
    Channel(s)                  : 6 channels
    Channel layout              : L R C LFE Ls Rs
    Sampling rate               : 48.0 kHz
    Frame rate                  : 31.250 FPS (1536 SPF)
    Compression mode            : Lossy
    Stream size                 : 441 MiB (7%)
    Title                       : Inglés [CinemaniaHDD]
    Language                    : English
    Service kind                : Complete Main
    Default                     : No
    Forced                      : No

    Text #1
    ID                          : 5
    Format                      : UTF-8
    Codec ID                    : S_TEXT/UTF8
    Codec ID/Info               : UTF-8 Plain Text
    Duration                    : 1 h 28 min
    Bit rate                    : 7 b/s
    Count of elements           : 96
    Stream size                 : 4.79 KiB (0%)
    Title                       : Forzados [CinemaniaHDD]
    Language                    : Spanish
    Default                     : Yes
    Forced                      : Yes

    Text #2
    ID                          : 6
    Format                      : UTF-8
    Codec ID                    : S_TEXT/UTF8
    Codec ID/Info               : UTF-8 Plain Text
    Duration                    : 1 h 35 min
    Bit rate                    : 100 b/s
    Count of elements           : 2049
    Stream size                 : 70.2 KiB (0%)
    Title                       : Español Latino [CinemaniaHDD]
    Language                    : Spanish
    Default                     : No
    Forced                      : No

    Text #3
    ID                          : 7
    Format                      : UTF-8
    Codec ID                    : S_TEXT/UTF8
    Codec ID/Info               : UTF-8 Plain Text
    Duration                    : 1 h 34 min
    Bit rate                    : 110 b/s
    Count of elements           : 2493
    Stream size                 : 76.5 KiB (0%)
    Title                       : Inglés [CinemaniaHDD]
    Language                    : English
    Default                     : No
    Forced                      : No

     

  • Peso: 5.86 GiB

Sinopsis

Cuando Jaycen Jennings, una estrella del fútbol americano en declive toca fondo, es condenado a realizar servicio comunitario entrenando a un indisciplinado equipo de fútbol infantil, podría redescubrir su pasado… y su amor por el juego.

Ficha técnica

  • Titulo original: The Underdoggs
  • Fecha de lanzamiento: 25-01-2024 (United States of America)
  • Director: Charles Stone III
  • Género: Comedia

Video trailer de la película

Enlaces de descarga

Rip de Bluray

Descargar The Underdoggs (2024) AMZN WEB-DL 1080p Latino




Aportes de DPeliculasHDmega la pass es:dpeliculashdmega.org Aportes de CinemaniaHD la pass es:cinemaniahdd.com Aportes recientes:cinemaniahdd.net
Guardado en : Comedia

Películas relacionadas

  • Nada que ver (2023) WEB-DL 1080p Latino

    Nada que ver (2023) WEB-DL 1080p Latino

    2023
    Nada que ver (2023) WEB-DL 1080p Latino

    1h 30m 2023

    Descargar Nada que ver (2023) WEB-DL 1080p Latino. Después de que Carlos tiene la tarea de cuidar a...

    Director: Kenya Marquez

    Género: Comedia

    Actores: Rebecca Jones

  • El Roomie (2024) WEB-DL 1080p Latino

    El Roomie (2024) WEB-DL 1080p Latino

    2024
    El Roomie (2024) WEB-DL 1080p Latino

    1h 39m 2024

    Descargar El Roomie (2024) WEB-DL 1080p Latino. Vivi se ve obligada a buscar un roomie para pagar la...

    Director: Pedro Pablo Ibarra

    Género: Comedia

    Actores: Victoria Ruffo

  • Lisa Frankenstein (2024) HD 1080p Latino

    Lisa Frankenstein (2024) HD 1080p Latino

    2024
    Lisa Frankenstein (2024) HD 1080p Latino

    1h 42m 2024

    Descargar Lisa Frankenstein (2024) HD 1080p Latino. En 1989, una impopular chica de secundaria llamada...

    Director: Zelda Williams

    Género: Comedia

    Actores: Wendy Miklovic

descargar The Underdoggs (2024) AMZN WEB-DL 1080p Latino 1080p gratis, The Underdoggs (2024) AMZN WEB-DL 1080p Latino mega 1 link, The Underdoggs (2024) AMZN WEB-DL 1080p Latino pelicula completa, descargar The Underdoggs (2024) AMZN WEB-DL 1080p Latino gratis en mega.

The Underdoggs (2024) AMZN WEB-DL 1080p Latino pelicula full hd, The Underdoggs (2024) AMZN WEB-DL 1080p Latino mega latino, The Underdoggs (2024) AMZN WEB-DL 1080p Latino 4k latino, The Underdoggs (2024) AMZN WEB-DL 1080p Latino pelicula completa, The Underdoggs (2024) AMZN WEB-DL 1080p Latino descargar gratis, descargar The Underdoggs (2024) AMZN WEB-DL 1080p Latino pelicula latino, The Underdoggs (2024) AMZN WEB-DL 1080p Latino 1 link mega, The Underdoggs (2024) AMZN WEB-DL 1080p Latino 1 link google drive, The Underdoggs (2024) AMZN WEB-DL 1080p Latino hd 1080p latino.
Comentarios 0