×

¿Problemas para descargar con Mozilla, EDGE? Deshabilita la opción "Abrir vinculos en una pestaña nueva" tal como lo muestra ésta imagen.

The Unbearable Weight of Massive Talent (2022) REMUX 4K HDR Latino – CMHDD

476 vistas

Información de The Unbearable Weight of Massive Talent (2022) REMUX 4K HDR Latino – CMHDD

Datos de la película

  • Calidad: 4K HDR
  • Audio: Español Latino AC3 5.1 BLURAY - Ingles AC3 5.1 BLURAY
  • Subtitulos: Español Latino PGS
  • Resolución: 3840x2160p
  • Formato: MKV
  • Codec: H.264
  • Encoder: Dracarys
  • Mediainfo: Clic para Mostrar Datos Ver
  • Format                      : Matroska
    Format version              : Version 4
    File size                   : 54.9 GiB
    Duration                    : 1 h 46 min
    Overall bit rate mode       : Variable
    Overall bit rate            : 73.6 Mb/s
    Movie name                  : The Unbearable Weight of Massive Talent (2022) REMUX 4K HDR Latino - CMHDD
    Encoded date                : UTC 2022-06-27 11:41:51
    Writing application         : mkvmerge v17.0.0 ('Be Ur Friend') 64-bit
    Writing library             : libebml v1.3.5 + libmatroska v1.4.8

    Video
    ID                          : 1
    Format                      : HEVC
    Format/Info                 : High Efficiency Video Coding
    Format profile              : Main 10@L5.1@High
    HDR format                  : SMPTE ST 2086, HDR10 compatible
    Codec ID                    : V_MPEGH/ISO/HEVC
    Duration                    : 1 h 46 min
    Bit rate                    : 68.3 Mb/s
    Width                       : 3 840 pixels
    Height                      : 2 160 pixels
    Display aspect ratio        : 16:9
    Frame rate mode             : Constant
    Frame rate                  : 23.976 (24000/1001) FPS
    Color space                 : YUV
    Chroma subsampling          : 4:2:0 (Type 2)
    Bit depth                   : 10 bits
    Bits/(Pixel*Frame)          : 0.343
    Stream size                 : 51.0 GiB (93%)
    Default                     : Yes
    Forced                      : No
    Color range                 : Limited
    Color primaries             : BT.2020
    Transfer characteristics    : PQ
    Matrix coefficients         : BT.2020 non-constant
    Mastering display color pri : BT.2020
    Mastering display luminance : min: 0.0001 cd/m2, max: 1000 cd/m2
    Maximum Content Light Level : 423 cd/m2
    Maximum Frame-Average Light : 231 cd/m2

    Audio #1
    ID                          : 2
    Format                      : MLP FBA 16-ch
    Format/Info                 : Meridian Lossless Packing FBA with 16-channel presentation
    Commercial name             : Dolby TrueHD with Dolby Atmos
    Codec ID                    : A_TRUEHD
    Duration                    : 1 h 46 min
    Bit rate mode               : Variable
    Bit rate                    : 3 900 kb/s
    Maximum bit rate            : 6 912 kb/s
    Channel(s)                  : 8 channels
    Channel layout              : L R C LFE Ls Rs Lb Rb
    Sampling rate               : 48.0 kHz
    Frame rate                  : 1 200.000 FPS (40 SPF)
    Compression mode            : Lossless
    Stream size                 : 2.91 GiB (5%)
    Language                    : English
    Default                     : No
    Forced                      : No
    Number of dynamic objects   : 11
    Bed channel count           : 1 channel
    Bed channel configuration   : LFE

    Audio #2
    ID                          : 3
    Format                      : AC-3
    Format/Info                 : Audio Coding 3
    Commercial name             : Dolby Digital
    Format settings             : Dolby Surround EX
    Codec ID                    : A_AC3
    Duration                    : 1 h 46 min
    Bit rate mode               : Constant
    Bit rate                    : 640 kb/s
    Channel(s)                  : 6 channels
    Channel layout              : L R C LFE Ls Rs
    Sampling rate               : 48.0 kHz
    Frame rate                  : 31.250 FPS (1536 SPF)
    Compression mode            : Lossy
    Stream size                 : 489 MiB (1%)
    Language                    : English
    Service kind                : Complete Main
    Default                     : No
    Forced                      : No

    Audio #3
    ID                          : 4
    Format                      : AC-3
    Format/Info                 : Audio Coding 3
    Commercial name             : Dolby Digital
    Codec ID                    : A_AC3
    Duration                    : 1 h 46 min
    Bit rate mode               : Constant
    Bit rate                    : 640 kb/s
    Channel(s)                  : 6 channels
    Channel layout              : L R C LFE Ls Rs
    Sampling rate               : 48.0 kHz
    Frame rate                  : 31.250 FPS (1536 SPF)
    Compression mode            : Lossy
    Stream size                 : 489 MiB (1%)
    Language                    : Spanish
    Service kind                : Complete Main
    Default                     : Yes
    Forced                      : No

    Text #1
    ID                          : 5
    Format                      : PGS
    Muxing mode                 : zlib
    Codec ID                    : S_HDMV/PGS
    Codec ID/Info               : Picture based subtitle format used on BDs/HD-DVDs
    Duration                    : 1 h 37 min
    Bit rate                    : 46.9 kb/s
    Count of elements           : 3084
    Stream size                 : 32.6 MiB (0%)
    Language                    : Spanish
    Default                     : No
    Forced                      : No

    Text #2
    ID                          : 6
    Format                      : PGS
    Muxing mode                 : zlib
    Codec ID                    : S_HDMV/PGS
    Codec ID/Info               : Picture based subtitle format used on BDs/HD-DVDs
    Duration                    : 1 h 37 min
    Bit rate                    : 64.4 kb/s
    Count of elements           : 3681
    Stream size                 : 45.1 MiB (0%)
    Language                    : Chinese
    Default                     : Yes
    Forced                      : No

  • Peso: 54.9 GiB

Sinopsis

Nicolas Cage se interpreta a sí mismo en esta loca comedia de acción. La versión ficticia de Cage es un actor sin blanca que se ve obligado a aceptar una oferta de un millón de dólares para asistir al cumpleaños de un superfan excéntrico multimillonario (Pedro Pascal). Pero la situación da un giro inesperado cuando Cage es reclutado por una agente de la CIA (Tiffany Haddish) y obligado a estar a la altura de su propia leyenda para salvarse a sí mismo y a sus seres queridos. Con una carrera construida para este preciso momento, el actor ganador de premios debe asumir el papel de su vida: Nick Cage.

Ficha técnica

  • Titulo original: The Unbearable Weight of Massive Talent
  • Fecha de lanzamiento: 20-04-2022 (United States of America)
  • Director: Tom Gormican
  • Género: Acción, Comedia, Crimen

Video trailer de la película

Enlaces de descarga

Rip de Bluray

Descargar The Unbearable Weight of Massive Talent (2022) REMUX 4K HDR Latino – CMHDD


Aportes de DPeliculasHDmega la pass es:dpeliculashdmega.org Aportes de CinemaniaHD la pass es:cinemaniahdd.com
Guardado en : Acción , Comedia , Crimen

Películas relacionadas

The Unbearable Weight of Massive Talent (2022) REMUX 4K HDR Latino – CMHDD pelicula full hd, The Unbearable Weight of Massive Talent (2022) REMUX 4K HDR Latino – CMHDD mega latino, The Unbearable Weight of Massive Talent (2022) REMUX 4K HDR Latino – CMHDD 4k latino, The Unbearable Weight of Massive Talent (2022) REMUX 4K HDR Latino – CMHDD pelicula completa, The Unbearable Weight of Massive Talent (2022) REMUX 4K HDR Latino – CMHDD descargar gratis, descargar The Unbearable Weight of Massive Talent (2022) REMUX 4K HDR Latino – CMHDD pelicula latino, The Unbearable Weight of Massive Talent (2022) REMUX 4K HDR Latino – CMHDD 1 link mega, The Unbearable Weight of Massive Talent (2022) REMUX 4K HDR Latino – CMHDD 1 link google drive, The Unbearable Weight of Massive Talent (2022) REMUX 4K HDR Latino – CMHDD hd 1080p latino.
Comentarios 0