×

¿Problemas para descargar con Mozilla, EDGE? Deshabilita la opción "Abrir vinculos en una pestaña nueva" tal como lo muestra ésta imagen.

The Umbrella Academy (2020) Temporada 2 NF WEB-DL 1080p Latino

391 vistas

Información de The Umbrella Academy (2020) Temporada 2 NF WEB-DL 1080p Latino

Datos de la película

  • Calidad: WEBDL
  • Audio: Español Latino AC3 5.1 Netflix - Ingles AC3 5.1 Netflix
  • Subtitulos: Español Latino SRT- FORZADOS SRT
  • Resolución: 1920x1080
  • Formato: MKV
  • Codec: H.264
  • Encoder: cinemaniahdd
  • Mediainfo: Clic para Mostrar Datos Ver
  • The Umbrella Academy T02E10 NF WEB-DL 1080p Latino [CNMNHDD].mkv
    Format                      : Matroska
    Format version              : Version 4
    File size                   : 2.60 GiB
    Duration                    : 49 min 9 s
    Overall bit rate mode       : Variable
    Overall bit rate            : 7 562 kb/s
    Movie name                  : The Umbrella Academy T02E10 - CinemaniaHDD.Net
    Encoded date                : UTC 2020-07-31 07:24:57
    Writing application         : mkvmerge v30.1.0 ('Forever And More') 64-bit
    Writing library             : libebml v1.3.6 + libmatroska v1.4.9 / Lavf58.28.101

    Video
    ID                          : 1
    Format                      : AVC
    Format/Info                 : Advanced Video Codec
    Format profile              : High@L4
    Format settings             : CABAC / 4 Ref Frames
    Format settings, CABAC      : Yes
    Format settings, Reference  : 4 frames
    Codec ID                    : V_MPEG4/ISO/AVC
    Duration                    : 49 min 9 s
    Bit rate mode               : Variable
    Bit rate                    : 6 789 kb/s
    Maximum bit rate            : 20.0 Mb/s
    Width                       : 1 920 pixels
    Height                      : 1 080 pixels
    Display aspect ratio        : 16:9
    Frame rate mode             : Constant
    Frame rate                  : 23.976 (24000/1001) FPS
    Color space                 : YUV
    Chroma subsampling          : 4:2:0
    Bit depth                   : 8 bits
    Scan type                   : Progressive
    Bits/(Pixel*Frame)          : 0.137
    Stream size                 : 2.33 GiB (90%)
    Title                       : CinemaniaHDD.Net
    Writing library             : x264 core 148 r2722 1b0121b
    Encoding settings           : cabac=1 / ref=4 / deblock=1:0:0 / analyse=0x3:0x111 / me=umh / subme=10 / psy=1 / psy_rd=1.00:0.00 / mixed_ref=1 / me_range=120 / chroma_me=1 / trellis=2 / 8x8dct=1 / cqm=0 / deadzone=21,11 / fast_pskip=1 / chroma_qp_offset=-2 / threads=8 / lookahead_threads=2 / sliced_threads=0 / nr=0 / decimate=1 / interlaced=0 / bluray_compat=0 / stitchable=1 / constrained_intra=0 / bframes=16 / b_pyramid=2 / b_adapt=2 / b_bias=0 / direct=3 / weightb=1 / open_gop=0 / weightp=2 / keyint=240 / keyint_min=121 / scenecut=0 / intra_refresh=0 / rc_lookahead=240 / rc=crf / mbtree=1 / crf=18.0 / qcomp=0.50 / qpmin=6 / qpmax=51 / qpstep=4 / vbv_maxrate=20000 / vbv_bufsize=25000 / crf_max=0.0 / nal_hrd=vbr / filler=0 / ip_ratio=1.40 / aq=1:0.80
    Default                     : Yes
    Forced                      : No

    Audio #1
    ID                          : 2
    Format                      : AC-3
    Format/Info                 : Audio Coding 3
    Commercial name             : Dolby Digital
    Codec ID                    : A_AC3
    Duration                    : 49 min 9 s
    Bit rate mode               : Constant
    Bit rate                    : 384 kb/s
    Channel(s)                  : 6 channels
    Channel layout              : L R C LFE Ls Rs
    Sampling rate               : 48.0 kHz
    Frame rate                  : 31.250 FPS (1536 SPF)
    Compression mode            : Lossy
    Stream size                 : 135 MiB (5%)
    Title                       : Español latino [CinemaniaHDD]
    Language                    : Spanish
    Service kind                : Complete Main
    Default                     : Yes
    Forced                      : No

    Audio #2
    ID                          : 3
    Format                      : AC-3
    Format/Info                 : Audio Coding 3
    Commercial name             : Dolby Digital
    Codec ID                    : A_AC3
    Duration                    : 49 min 9 s
    Bit rate mode               : Constant
    Bit rate                    : 384 kb/s
    Channel(s)                  : 6 channels
    Channel layout              : L R C LFE Ls Rs
    Sampling rate               : 48.0 kHz
    Frame rate                  : 31.250 FPS (1536 SPF)
    Compression mode            : Lossy
    Stream size                 : 135 MiB (5%)
    Title                       : Inglés [CinemaniaHDD]
    Language                    : English
    Service kind                : Complete Main
    Default                     : No
    Forced                      : No

  • Peso: 2.60 GiB C/U APROX --- 24 GiB in 10chapter

Sinopsis

Se tuvo que morir el padre para que se vuelvan a reunir. Cabe destacar que entre superhéroes el vínculo familiar es una de las mayores causas de apocalipsis prematuro.

Ficha técnica

Video trailer de la película

Enlaces de descarga

Rip de Bluray

Descargar The Umbrella Academy (2020) Temporada 2 NF WEB-DL 1080p Latino




Aportes de DPeliculasHDmega la pass es:dpeliculashdmega.org Aportes de CinemaniaHD la pass es:cinemaniahdd.com

Películas relacionadas

descargar The Umbrella Academy (2020) Temporada 2 NF WEB-DL 1080p Latino WEBDL 1080p gratis, The Umbrella Academy (2020) Temporada 2 NF WEB-DL 1080p Latino WEBDL mega 1 link, The Umbrella Academy (2020) Temporada 2 NF WEB-DL 1080p Latino WEBDL serie completa, descargar The Umbrella Academy (2020) Temporada 2 NF WEB-DL 1080p Latino WEBDL gratis en mega.

The Umbrella Academy (2020) Temporada 2 NF WEB-DL 1080p Latino pelicula full hd, The Umbrella Academy (2020) Temporada 2 NF WEB-DL 1080p Latino mega latino, The Umbrella Academy (2020) Temporada 2 NF WEB-DL 1080p Latino 4k latino, The Umbrella Academy (2020) Temporada 2 NF WEB-DL 1080p Latino pelicula completa, The Umbrella Academy (2020) Temporada 2 NF WEB-DL 1080p Latino descargar gratis, descargar The Umbrella Academy (2020) Temporada 2 NF WEB-DL 1080p Latino pelicula latino, The Umbrella Academy (2020) Temporada 2 NF WEB-DL 1080p Latino 1 link mega, The Umbrella Academy (2020) Temporada 2 NF WEB-DL 1080p Latino 1 link google drive, The Umbrella Academy (2020) Temporada 2 NF WEB-DL 1080p Latino hd 1080p latino.
Comentarios 0