×

¿Problemas para descargar con Mozilla, EDGE? Deshabilita la opción "Abrir vinculos en una pestaña nueva" tal como lo muestra ésta imagen.

The Twilight Zone (2019) Temporada 1 AMZN WEB-DL 1080p Latino

466 vistas

Información de The Twilight Zone (2019) Temporada 1 AMZN WEB-DL 1080p Latino

Datos de la película

  • Calidad: WEBDL
  • Audio: Español Latino E-AC3 5.1 AMAZON - Ingles E-AC3 5.1 AMAZON
  • Subtitulos: Español Latino SRT- FORZADOS SRT
  • Resolución: 1920x1080
  • Formato: MKV
  • Codec: H.264
  • Encoder: cinemaniahdd
  • Mediainfo: Clic para Mostrar Datos Ver
  • La Dimension Desconocida T01E01 AMZN WEB-DL 1080p Latino [CNMNHDD].mkv
    Format                      : Matroska
    Format version              : Version 4
    File size                   : 3.52 GiB
    Duration                    : 54 min 1 s
    Overall bit rate            : 9 325 kb/s
    Movie name                  : La Dimension Desconocida T01E01 - CinemaniaHDD.Net
    Encoded date                : UTC 2020-11-08 22:31:44
    Writing application         : mkvmerge v51.0.0 ('I Wish') 64-bit
    Writing library             : libebml v1.4.0 + libmatroska v1.6.2

    Video
    ID                          : 1
    Format                      : AVC
    Format/Info                 : Advanced Video Codec
    Format profile              : High@L4
    Format settings             : CABAC / 4 Ref Frames
    Format settings, CABAC      : Yes
    Format settings, Reference  : 4 frames
    Codec ID                    : V_MPEG4/ISO/AVC
    Duration                    : 54 min 1 s
    Bit rate mode               : Constant
    Bit rate                    : 7 402 kb/s
    Nominal bit rate            : 10 000 kb/s
    Width                       : 1 920 pixels
    Height                      : 1 080 pixels
    Display aspect ratio        : 16:9
    Frame rate mode             : Constant
    Frame rate                  : 23.976 (24000/1001) FPS
    Color space                 : YUV
    Chroma subsampling          : 4:2:0
    Bit depth                   : 8 bits
    Scan type                   : Progressive
    Bits/(Pixel*Frame)          : 0.149
    Stream size                 : 2.79 GiB (79%)
    Title                       : CinemaniaHDD
    Language                    : English
    Default                     : Yes
    Forced                      : No
    Color range                 : Limited
    Color primaries             : BT.709
    Transfer characteristics    : BT.709
    Matrix coefficients         : BT.709

    Audio #1
    ID                          : 2
    Format                      : AC-3
    Format/Info                 : Audio Coding 3
    Commercial name             : Dolby Digital
    Codec ID                    : A_AC3
    Duration                    : 54 min 1 s
    Bit rate mode               : Constant
    Bit rate                    : 640 kb/s
    Channel(s)                  : 6 channels
    Channel layout              : L R C LFE Ls Rs
    Sampling rate               : 48.0 kHz
    Frame rate                  : 31.250 FPS (1536 SPF)
    Compression mode            : Lossy
    Stream size                 : 247 MiB (7%)
    Title                       : Español latino - AC3  [CinemaniaHDD]
    Language                    : Spanish
    Service kind                : Complete Main
    Default                     : Yes
    Forced                      : No

    Audio #2
    ID                          : 3
    Format                      : E-AC-3
    Format/Info                 : Enhanced AC-3
    Commercial name             : Dolby Digital Plus
    Codec ID                    : A_EAC3
    Duration                    : 54 min 1 s
    Bit rate mode               : Constant
    Bit rate                    : 640 kb/s
    Channel(s)                  : 6 channels
    Channel layout              : L R C LFE Ls Rs
    Sampling rate               : 48.0 kHz
    Frame rate                  : 31.250 FPS (1536 SPF)
    Compression mode            : Lossy
    Stream size                 : 247 MiB (7%)
    Title                       : Español latino - E-AC3  [CinemaniaHDD]
    Language                    : Spanish
    Service kind                : Complete Main
    Default                     : No
    Forced                      : No

    Audio #3
    ID                          : 4
    Format                      : E-AC-3
    Format/Info                 : Enhanced AC-3
    Commercial name             : Dolby Digital Plus
    Codec ID                    : A_EAC3
    Duration                    : 54 min 1 s
    Bit rate mode               : Constant
    Bit rate                    : 640 kb/s
    Channel(s)                  : 6 channels
    Channel layout              : L R C LFE Ls Rs
    Sampling rate               : 48.0 kHz
    Frame rate                  : 31.250 FPS (1536 SPF)
    Compression mode            : Lossy
    Stream size                 : 247 MiB (7%)
    Title                       : Inglés - E-AC3 [CinemaniaHDD]
    Language                    : English
    Service kind                : Complete Main
    Default                     : No
    Forced                      : No

    Text #1
    ID                          : 5
    Format                      : UTF-8
    Codec ID                    : S_TEXT/UTF8
    Codec ID/Info               : UTF-8 Plain Text
    Duration                    : 41 min 17 s
    Bit rate                    : 0 b/s
    Count of elements           : 10
    Stream size                 : 200 Bytes (0%)
    Title                       : Forzados [CinemaniaHDD]
    Language                    : Spanish
    Default                     : Yes
    Forced                      : Yes

    Text #2
    ID                          : 6
    Format                      : UTF-8
    Codec ID                    : S_TEXT/UTF8
    Codec ID/Info               : UTF-8 Plain Text
    Duration                    : 52 min 45 s
    Bit rate                    : 81 b/s
    Count of elements           : 1092
    Stream size                 : 31.6 KiB (0%)
    Title                       : Inglés [CinemaniaHDD]
    Language                    : English
    Default                     : No
    Forced                      : No

    Text #3
    ID                          : 7
    Format                      : UTF-8
    Codec ID                    : S_TEXT/UTF8
    Codec ID/Info               : UTF-8 Plain Text
    Duration                    : 52 min 39 s
    Bit rate                    : 72 b/s
    Count of elements           : 822
    Stream size                 : 28.0 KiB (0%)
    Title                       : Español latino [CinemaniaHDD]
    Language                    : Spanish
    Default                     : No
    Forced                      : No

     

  • Peso: 3.52 GiB Aprox ---- 29.9 GiB in 10 Chapters.

Sinopsis

La serie de antología de La Dimensión Desconocida traerá el legado de narrativa de conciencia social del programa original al público moderno al explorar la condición humana y ver con una lupa la cultura de hoy en día.

Ficha técnica

Video trailer de la película

Enlaces de descarga

Rip de Bluray

Descargar The Twilight Zone (2019) Temporada 1 AMZN WEB-DL 1080p Latino




Aportes de DPeliculasHDmega la pass es:dpeliculashdmega.org Aportes de CinemaniaHD la pass es:cinemaniahdd.com
Guardado en : Drama , Misterio , Sci-Fi & Fantasy

Películas relacionadas

descargar The Twilight Zone (2019) Temporada 1 AMZN WEB-DL 1080p Latino WEBDL 1080p gratis, The Twilight Zone (2019) Temporada 1 AMZN WEB-DL 1080p Latino WEBDL mega 1 link, The Twilight Zone (2019) Temporada 1 AMZN WEB-DL 1080p Latino WEBDL pelicula completa, descargar The Twilight Zone (2019) Temporada 1 AMZN WEB-DL 1080p Latino WEBDL gratis en mega.

The Twilight Zone (2019) Temporada 1 AMZN WEB-DL 1080p Latino pelicula full hd, The Twilight Zone (2019) Temporada 1 AMZN WEB-DL 1080p Latino mega latino, The Twilight Zone (2019) Temporada 1 AMZN WEB-DL 1080p Latino 4k latino, The Twilight Zone (2019) Temporada 1 AMZN WEB-DL 1080p Latino pelicula completa, The Twilight Zone (2019) Temporada 1 AMZN WEB-DL 1080p Latino descargar gratis, descargar The Twilight Zone (2019) Temporada 1 AMZN WEB-DL 1080p Latino pelicula latino, The Twilight Zone (2019) Temporada 1 AMZN WEB-DL 1080p Latino 1 link mega, The Twilight Zone (2019) Temporada 1 AMZN WEB-DL 1080p Latino 1 link google drive, The Twilight Zone (2019) Temporada 1 AMZN WEB-DL 1080p Latino hd 1080p latino.
Comentarios 0