×

¿Problemas para descargar con Mozilla, EDGE? Deshabilita la opción "Abrir vinculos en una pestaña nueva" tal como lo muestra ésta imagen.

The Twilight Saga: New Moon (2009) [Open Matte] AMZN WEB-DL 1080p Latino

440 vistas

Información de The Twilight Saga: New Moon (2009) [Open Matte] AMZN WEB-DL 1080p Latino

Datos de la película

  • Calidad: 1080p
  • Audio: Español Latino AC3 5.1 WEB-DL - Ingles AC3 5.1 WEB-DL
  • Subtitulos: Español Latino SRT- FORZADOS SRT
  • Resolución: 1920x1080
  • Formato: MKV
  • Codec: H.264
  • Encoder: cinemaniahdd
  • Mediainfo: Clic para Mostrar Datos Ver
  • The Twilight Saga New Moon (2009) [OpenMatte] AMZN WEB-DL 1080p Latino [CNMNHDD].mkv
    Format                      : Matroska
    Format version              : Version 4
    File size                   : 10.1 GiB
    Duration                    : 2 h 10 min
    Overall bit rate            : 11.1 Mb/s
    Movie name                  : Crepusculo Luna Nueva (2009) - Open Matte [1080p] - CinemaniaHDD.Net
    Encoded date                : UTC 2023-02-17 03:02:25
    Writing application         : mkvmerge v56.1.0 ('My Friend') 64-bit
    Writing library             : libebml v1.4.2 + libmatroska v1.6.4

    Video
    ID                          : 1
    Format                      : AVC
    Format/Info                 : Advanced Video Codec
    Format profile              : High@L4
    Format settings             : CABAC / 4 Ref Frames
    Format settings, CABAC      : Yes
    Format settings, Reference  : 4 frames
    Codec ID                    : V_MPEG4/ISO/AVC
    Duration                    : 2 h 10 min
    Bit rate mode               : Constant
    Bit rate                    : 9 172 kb/s
    Nominal bit rate            : 10 000 kb/s
    Width                       : 1 920 pixels
    Height                      : 1 080 pixels
    Display aspect ratio        : 16:9
    Frame rate mode             : Constant
    Frame rate                  : 23.976 (24000/1001) FPS
    Color space                 : YUV
    Chroma subsampling          : 4:2:0
    Bit depth                   : 8 bits
    Scan type                   : Progressive
    Bits/(Pixel*Frame)          : 0.184
    Stream size                 : 8.34 GiB (83%)
    Title                       : CinemaniaHDD
    Default                     : Yes
    Forced                      : No
    Color range                 : Limited
    Color primaries             : BT.709
    Transfer characteristics    : BT.709
    Matrix coefficients         : BT.709

    Audio #1
    ID                          : 2
    Format                      : AC-3
    Format/Info                 : Audio Coding 3
    Commercial name             : Dolby Digital
    Codec ID                    : A_AC3
    Duration                    : 2 h 10 min
    Bit rate mode               : Constant
    Bit rate                    : 640 kb/s
    Channel(s)                  : 6 channels
    Channel layout              : L R C LFE Ls Rs
    Sampling rate               : 48.0 kHz
    Frame rate                  : 31.250 FPS (1536 SPF)
    Compression mode            : Lossy
    Stream size                 : 596 MiB (6%)
    Title                       : Español latino [CinemaniaHDD]
    Language                    : Spanish
    Service kind                : Complete Main
    Default                     : Yes
    Forced                      : No

    Audio #2
    ID                          : 3
    Format                      : E-AC-3
    Format/Info                 : Enhanced AC-3
    Commercial name             : Dolby Digital Plus
    Codec ID                    : A_EAC3
    Duration                    : 2 h 10 min
    Bit rate mode               : Constant
    Bit rate                    : 640 kb/s
    Channel(s)                  : 6 channels
    Channel layout              : L R C LFE Ls Rs
    Sampling rate               : 48.0 kHz
    Frame rate                  : 31.250 FPS (1536 SPF)
    Compression mode            : Lossy
    Stream size                 : 596 MiB (6%)
    Title                       : Español latino / E-AC3 [CinemaniaHDD]
    Language                    : Spanish
    Service kind                : Complete Main
    Default                     : No
    Forced                      : No

    Audio #3
    ID                          : 4
    Format                      : E-AC-3
    Format/Info                 : Enhanced AC-3
    Commercial name             : Dolby Digital Plus
    Codec ID                    : A_EAC3
    Duration                    : 2 h 10 min
    Bit rate mode               : Constant
    Bit rate                    : 640 kb/s
    Channel(s)                  : 6 channels
    Channel layout              : L R C LFE Ls Rs
    Sampling rate               : 48.0 kHz
    Frame rate                  : 31.250 FPS (1536 SPF)
    Compression mode            : Lossy
    Stream size                 : 596 MiB (6%)
    Title                       : Inglés [CinemaniaHDD]
    Language                    : English
    Service kind                : Complete Main
    Default                     : No
    Forced                      : No

    Text #1
    ID                          : 5
    Format                      : UTF-8
    Codec ID                    : S_TEXT/UTF8
    Codec ID/Info               : UTF-8 Plain Text
    Duration                    : 2 h 9 min
    Bit rate                    : 36 b/s
    Count of elements           : 1277
    Stream size                 : 34.5 KiB (0%)
    Title                       : Español latino [CinemaniaHDD]
    Language                    : Spanish
    Default                     : No
    Forced                      : No

    Text #2
    ID                          : 6
    Format                      : UTF-8
    Codec ID                    : S_TEXT/UTF8
    Codec ID/Info               : UTF-8 Plain Text
    Duration                    : 2 h 9 min
    Bit rate                    : 48 b/s
    Count of elements           : 1730
    Stream size                 : 45.6 KiB (0%)
    Title                       : Inglés [CinemaniaHDD]
    Language                    : English
    Default                     : No
    Forced                      : No

    Menu
    00:00:00.000                : 1. Studio Logos
    00:00:01.000                : 2. Bella Has a Dream, Opening Credits
    00:00:58.000                : 3. Studio Logo
    00:01:07.000                : 4. Bella Has a Dream, Opening Credits
    00:02:46.000                : 5. Charlie Has a Present for Bella
    00:03:43.000                : 6. A New Day of School Begins
    00:04:03.000                : 7. A New Day of School Begins
    00:07:10.000                : 8. Alice Has a Present for Bella
    00:08:12.000                : 9. Bella's Class Watches Romeo and Juliet
    00:10:41.000                : 10. Edward Tells Bella the Story of the Volturi
    00:13:03.000                : 11. The Cullens Celebrate Bella's Birthday
    00:15:31.000                : 12. Carlisle Helps Stitch Bella
    00:17:03.000                : 13. Edward Worries about Bella's Safety
    00:22:09.000                : 14. Edward Worries about Bella's Safety
    00:24:45.000                : 15. Edward Worries about Bella's Safety
    00:26:39.000                : 16. Charlie Tries to Locate Bella
    00:27:42.000                : 17. Bella Pines for Edward
    00:30:08.000                : 18. Charlie Has Concerns about Bella's Behavior
    00:31:40.000                : 19. Bella Spends Girls' Night with Jessica
    00:35:19.000                : 20. Bella Has a Request for Jacob
    00:39:47.000                : 21. Bella Has a Request for Jacob
    00:40:26.000                : 22. Bella Continues to Have Nightmares
    00:41:11.000                : 23. Bella Continues to Have Nightmares
    00:41:52.000                : 24. Bella Learns about Sam Uley and His Followers
    00:44:13.000                : 25. Jacob Teaches Bella How to Ride the Bike
    00:46:26.000                : 26. Jacob Teaches Bella How to Ride the Bike
    00:46:47.000                : 27. Bella Decides to Finally Eat with Her Friends
    00:48:51.000                : 28. Jacob and Mike Awkwardly Talk
    00:50:07.000                : 29. Jacob and Bella Discuss Where Their Relationship Stands
    00:53:11.000                : 30. Jacob and Bella Discuss Where Their Relationship Stands
    00:53:48.000                : 31. Bella Tries to Get in Touch with Jacob
    00:54:39.000                : 32. Bella Confronts Jacob
    00:58:22.000                : 33. Bella Searches for the Meadow in Her Dreams
    01:03:23.000                : 34. Bella Tells Charlie about the Wolves
    01:04:18.000                : 35. Jacob Visits Bella
    01:07:54.000                : 36. Jacob Visits Bella
    01:08:08.000                : 37. Bella Has a Dream Again
    01:08:48.000                : 38. Guess the Wolf's Out of the Bag
    01:10:53.000                : 39. Bella Meets Emily
    01:13:30.000                : 40. Jacob Confides in Bella
    01:16:22.000                : 41. Bella Realizes What She Has to Do
    01:17:19.000                : 42. The Hunt Begins
    01:19:49.000                : 43. Bella Tries to See Edward Again
    01:22:54.000                : 44. Bella Tries to See Edward Again
    01:23:16.000                : 45. Jacob Tries to Warn Bella
    01:26:40.000                : 46. Bella Has a Surprise Visitor
    01:33:25.000                : 47. Bella and Alice Rush to Get to Edward
    01:38:27.000                : 48. Bella and Edward Reunite
    01:39:04.000                : 49. Bella and Edward Reunite
    01:40:05.000                : 50. Bella and Edward Reunite
    01:41:14.000                : 51. Bella and Edward Face the Volturi
    01:50:48.000                : 52. Bella Returns Home
    01:54:14.000                : 53. Bella Asks the Cullens to Vote
    01:55:59.000                : 54. Bella Makes Her Final Decision
    02:01:25.000                : 55. End Credits

     

  • Peso: 10.1 GiB

Sinopsis

En esta segunda entrega de la Saga Crepúsculo, Edward Cullen (Robert Pattinson) decide abandonar a Bella Swan (Kristen Stewart) para mantenerla alejada de los peligros del mundo vampírico. Con la ayuda de Jacob Black (Taylor Lautner), su amigo de la infancia y miembro de la misteriosa tribu quileute, Bella intentará superar el abandono de Edward, que la ha dejado sumida en el mayor de los desconsuelos. Pero los peligros siguen acechando a la joven; nuevas y asombrosas criaturas sobrenaturales se cruzarán en su camino, y Bella sólo contará con el apoyo del cada vez más cercano e irresistible Jacob. Repentinamente, Bella se encuentra inmersa en el mundo de los hombres lobo, ancestrales enemigos de los vampiros, y su lealtad es puesta a prueba.

Ficha técnica

Video trailer de la película

Enlaces de descarga

Rip de Bluray

Descargar The Twilight Saga: New Moon (2009) [Open Matte] AMZN WEB-DL 1080p Latino




Aportes de DPeliculasHDmega la pass es:dpeliculashdmega.org Aportes de CinemaniaHD la pass es:cinemaniahdd.com Aportes recientes:cinemaniahdd.net
Guardado en : Aventura , Drama , Fantasía , OPEN MATTE , Romance

Películas relacionadas

descargar The Twilight Saga: New Moon (2009) [Open Matte] AMZN WEB-DL 1080p Latino 1080p 1080p gratis, The Twilight Saga: New Moon (2009) [Open Matte] AMZN WEB-DL 1080p Latino 1080p mega 1 link, The Twilight Saga: New Moon (2009) [Open Matte] AMZN WEB-DL 1080p Latino 1080p pelicula completa, descargar The Twilight Saga: New Moon (2009) [Open Matte] AMZN WEB-DL 1080p Latino 1080p gratis en mega.

The Twilight Saga: New Moon (2009) [Open Matte] AMZN WEB-DL 1080p Latino pelicula full hd, The Twilight Saga: New Moon (2009) [Open Matte] AMZN WEB-DL 1080p Latino mega latino, The Twilight Saga: New Moon (2009) [Open Matte] AMZN WEB-DL 1080p Latino 4k latino, The Twilight Saga: New Moon (2009) [Open Matte] AMZN WEB-DL 1080p Latino pelicula completa, The Twilight Saga: New Moon (2009) [Open Matte] AMZN WEB-DL 1080p Latino descargar gratis, descargar The Twilight Saga: New Moon (2009) [Open Matte] AMZN WEB-DL 1080p Latino pelicula latino, The Twilight Saga: New Moon (2009) [Open Matte] AMZN WEB-DL 1080p Latino 1 link mega, The Twilight Saga: New Moon (2009) [Open Matte] AMZN WEB-DL 1080p Latino 1 link google drive, The Twilight Saga: New Moon (2009) [Open Matte] AMZN WEB-DL 1080p Latino hd 1080p latino.
Comentarios 0