×

¿Problemas para descargar con Mozilla, EDGE? Deshabilita la opción "Abrir vinculos en una pestaña nueva" tal como lo muestra ésta imagen.

The Twilight Saga: Eclipse (2010) [OpenMatte] WEB-DL 1080p Latino

226 vistas

Información de The Twilight Saga: Eclipse (2010) [OpenMatte] WEB-DL 1080p Latino

Datos de la película

  • Calidad: 1080p
  • Audio: Español Latino AC3 5.1 WEB-DL - Ingles AC3 5.1 WEB-DL
  • Subtitulos: Español Latino SRT- FORZADOS SRT
  • Resolución: 1920x1080
  • Formato: MKV
  • Codec: H.264
  • Encoder: cinemaniahdd
  • Mediainfo: Clic para Mostrar Datos Ver
  • The Twilight Saga. Eclipse (2010) [OpenMate] WEB-DL 1080p Latino [CNMNHDD].mkv
    Format                      : Matroska
    Format version              : Version 4
    File size                   : 8.59 GiB
    Duration                    : 2 h 4 min
    Overall bit rate mode       : Variable
    Overall bit rate            : 9 910 kb/s
    Movie name                  : The Twilight Saga. Eclipse (2010) [OpenMate] - CinemaniaHDD.Net
    Encoded date                : UTC 2021-08-29 01:56:13
    Writing application         : mkvmerge v56.1.0 ('My Friend') 64-bit
    Writing library             : libebml v1.4.2 + libmatroska v1.6.4

    Video
    ID                          : 1
    Format                      : AVC
    Format/Info                 : Advanced Video Codec
    Format profile              : High@L4
    Format settings             : CABAC / 4 Ref Frames
    Format settings, CABAC      : Yes
    Format settings, Reference  : 4 frames
    Codec ID                    : V_MPEG4/ISO/AVC
    Duration                    : 2 h 4 min
    Bit rate mode               : Variable
    Bit rate                    : 9 025 kb/s
    Width                       : 1 920 pixels
    Height                      : 1 080 pixels
    Display aspect ratio        : 16:9
    Frame rate mode             : Constant
    Frame rate                  : 23.976 (24000/1001) FPS
    Color space                 : YUV
    Chroma subsampling          : 4:2:0
    Bit depth                   : 8 bits
    Scan type                   : Progressive
    Bits/(Pixel*Frame)          : 0.133
    Stream size                 : 7.15 GiB (83%)
    Title                       : CinemaniaHDD
    Language                    : Spanish
    Default                     : Yes
    Forced                      : No
    Color range                 : Limited
    Color primaries             : BT.709
    Transfer characteristics    : BT.709
    Matrix coefficients         : BT.709

    Audio #1
    ID                          : 2
    Format                      : AC-3
    Format/Info                 : Audio Coding 3
    Commercial name             : Dolby Digital
    Codec ID                    : A_AC3
    Duration                    : 2 h 4 min
    Bit rate mode               : Constant
    Bit rate                    : 384 kb/s
    Channel(s)                  : 2 channels
    Channel layout              : L R
    Sampling rate               : 48.0 kHz
    Frame rate                  : 31.250 FPS (1536 SPF)
    Compression mode            : Lossy
    Stream size                 : 341 MiB (4%)
    Title                       : Español latino / 2.0 [CinemaniaHDD]
    Language                    : Spanish
    Service kind                : Complete Main
    Default                     : Yes
    Forced                      : No

    Audio #2
    ID                          : 3
    Format                      : AC-3
    Format/Info                 : Audio Coding 3
    Commercial name             : Dolby Digital
    Codec ID                    : A_AC3
    Duration                    : 2 h 4 min
    Bit rate mode               : Constant
    Bit rate                    : 640 kb/s
    Channel(s)                  : 6 channels
    Channel layout              : L R C LFE Ls Rs
    Sampling rate               : 48.0 kHz
    Frame rate                  : 31.250 FPS (1536 SPF)
    Compression mode            : Lossy
    Stream size                 : 568 MiB (6%)
    Title                       : Español latino / 5.1 [CinemaniaHDD]
    Language                    : Spanish
    Service kind                : Complete Main
    Default                     : No
    Forced                      : No

    Audio #3
    ID                          : 4
    Format                      : AC-3
    Format/Info                 : Audio Coding 3
    Commercial name             : Dolby Digital
    Codec ID                    : A_AC3
    Duration                    : 2 h 4 min
    Bit rate mode               : Constant
    Bit rate                    : 640 kb/s
    Channel(s)                  : 6 channels
    Channel layout              : L R C LFE Ls Rs
    Sampling rate               : 48.0 kHz
    Frame rate                  : 31.250 FPS (1536 SPF)
    Compression mode            : Lossy
    Stream size                 : 568 MiB (6%)
    Title                       : Inglés / 5.1 [CinemaniaHDD]
    Language                    : English
    Service kind                : Complete Main
    Default                     : No
    Forced                      : No

    Text #1
    ID                          : 5
    Format                      : UTF-8
    Codec ID                    : S_TEXT/UTF8
    Codec ID/Info               : UTF-8 Plain Text
    Duration                    : 1 h 55 min
    Bit rate                    : 0 b/s
    Count of elements           : 5
    Stream size                 : 187 Bytes (0%)
    Title                       : Forzados [CinemaniaHDD]
    Language                    : Spanish
    Default                     : Yes
    Forced                      : Yes

    Text #2
    ID                          : 6
    Format                      : UTF-8
    Codec ID                    : S_TEXT/UTF8
    Codec ID/Info               : UTF-8 Plain Text
    Duration                    : 1 h 56 min
    Bit rate                    : 44 b/s
    Count of elements           : 1267
    Stream size                 : 38.4 KiB (0%)
    Title                       : Español latino [CinemaniaHDD]
    Language                    : Spanish
    Default                     : No
    Forced                      : No

     

  • Peso: 8.59 GiB

Sinopsis

En esta tercera entrega de la exitosa saga de vampiros de las novelas de Stephenie Meyer, Bella tendrá que elegir entre Edward y Jacob. La ciudad de Seattle es devastada por una serie de misteriosos asesinatos que va en aumento, mientras una vampiresa busca venganza. Bella debe escoger entre su amor por Edward y su amistad con Jacob, consciente de que su decisión puede iniciar una batalla entre vampiros y licántropos. Rodeada de peligro y con su graduación acercándose, ahora se enfrenta a la decisión más importante de su vida.

Ficha técnica

Video trailer de la película

Enlaces de descarga

Rip de Bluray

Descargar The Twilight Saga: Eclipse (2010) [OpenMatte] WEB-DL 1080p Latino




Aportes de DPeliculasHDmega la pass es:dpeliculashdmega.org Aportes de CinemaniaHD la pass es:cinemaniahdd.com
Guardado en : Aventura , Drama , Fantasía , OPEN MATTE , Romance

Películas relacionadas

descargar The Twilight Saga: Eclipse (2010) [OpenMatte] WEB-DL 1080p Latino 1080p 1080p gratis, The Twilight Saga: Eclipse (2010) [OpenMatte] WEB-DL 1080p Latino 1080p mega 1 link, The Twilight Saga: Eclipse (2010) [OpenMatte] WEB-DL 1080p Latino 1080p pelicula completa, descargar The Twilight Saga: Eclipse (2010) [OpenMatte] WEB-DL 1080p Latino 1080p gratis en mega.

The Twilight Saga: Eclipse (2010) [OpenMatte] WEB-DL 1080p Latino pelicula full hd, The Twilight Saga: Eclipse (2010) [OpenMatte] WEB-DL 1080p Latino mega latino, The Twilight Saga: Eclipse (2010) [OpenMatte] WEB-DL 1080p Latino 4k latino, The Twilight Saga: Eclipse (2010) [OpenMatte] WEB-DL 1080p Latino pelicula completa, The Twilight Saga: Eclipse (2010) [OpenMatte] WEB-DL 1080p Latino descargar gratis, descargar The Twilight Saga: Eclipse (2010) [OpenMatte] WEB-DL 1080p Latino pelicula latino, The Twilight Saga: Eclipse (2010) [OpenMatte] WEB-DL 1080p Latino 1 link mega, The Twilight Saga: Eclipse (2010) [OpenMatte] WEB-DL 1080p Latino 1 link google drive, The Twilight Saga: Eclipse (2010) [OpenMatte] WEB-DL 1080p Latino hd 1080p latino.
Comentarios 0