×

¿Problemas para descargar con Mozilla, EDGE? Deshabilita la opción "Abrir vinculos en una pestaña nueva" tal como lo muestra ésta imagen.

El Smoking (2002) AMZN Web-DL 1080p Latino

153 vistas

Información de El Smoking (2002) AMZN Web-DL 1080p Latino

Datos de la película

  • Calidad: WEBDL
  • Audio: Se especifica abajo de la Sinopsis
  • Subtitulos: Español Latino SRT - Ingles SRT
  • Resolución: 1920x1080p
  • Formato: MKV
  • Codec: H.264
  • Encoder: CinefiloCool
  • Mediainfo: Clic para Mostrar Datos Ver
  • El Smoking (2002) AMZN WebDL 1080p Latino-CMHDD.mkv
    Format                      : Matroska
    Format version              : Version 4
    File size                   : 11.2 GiB
    Duration                    : 1 h 38 min
    Overall bit rate mode       : Variable
    Overall bit rate            : 16.3 Mb/s
    Movie name                  : The Tuxedo (2002) CinemaniaHDD.Net
    Encoded date                : UTC 2021-05-13 06:08:39
    Writing application         : mkvmerge v56.1.0 ('My Friend') 64-bit
    Writing library             : libebml v1.4.2 + libmatroska v1.6.4
    Attachments                 : CINEMANIAHD.png

    Video
    ID                          : 1
    Format                      : AVC
    Format/Info                 : Advanced Video Codec
    Format profile              : High@L4
    Format settings             : CABAC / 4 Ref Frames
    Format settings, CABAC      : Yes
    Format settings, Reference  : 4 frames
    Codec ID                    : V_MPEG4/ISO/AVC
    Duration                    : 1 h 38 min
    Bit rate mode               : Variable
    Bit rate                    : 14.3 Mb/s
    Maximum bit rate            : 15.0 Mb/s
    Width                       : 1 920 pixels
    Height                      : 1 080 pixels
    Display aspect ratio        : 16:9
    Frame rate mode             : Constant
    Frame rate                  : 23.976 (24000/1001) FPS
    Color space                 : YUV
    Chroma subsampling          : 4:2:0
    Bit depth                   : 8 bits
    Scan type                   : Progressive
    Bits/(Pixel*Frame)          : 0.288
    Stream size                 : 9.88 GiB (88%)
    Title                       : WEB HD1080p [CinemaniaHDD]
    Writing library             : x264 core 148 r2623 d5b2374
    Encoding settings           : cabac=1 / ref=4 / deblock=1:-1:-1 / analyse=0x3:0x133 / me=umh / subme=9 / psy=1 / psy_rd=1.00:0.15 / mixed_ref=1 / me_range=24 / chroma_me=1 / trellis=2 / 8x8dct=1 / cqm=0 / deadzone=21,11 / fast_pskip=1 / chroma_qp_offset=-3 / threads=34 / lookahead_threads=5 / sliced_threads=0 / nr=150 / decimate=1 / interlaced=0 / bluray_compat=0 / constrained_intra=0 / bframes=8 / b_pyramid=2 / b_adapt=2 / b_bias=0 / direct=3 / weightb=1 / open_gop=0 / weightp=2 / keyint=120 / keyint_min=61 / scenecut=0 / intra_refresh=0 / rc_lookahead=120 / rc=crf / mbtree=1 / crf=18.0 / qcomp=0.60 / qpmin=0 / qpmax=69 / qpstep=4 / vbv_maxrate=15000 / vbv_bufsize=31250 / crf_max=0.0 / nal_hrd=vbr / filler=0 / ip_ratio=1.40 / aq=3:1.00
    Language                    : English
    Default                     : Yes
    Forced                      : No
    Color range                 : Limited
    Color primaries             : BT.709
    Transfer characteristics    : BT.709
    Matrix coefficients         : BT.709

    Audio #1
    ID                          : 2
    Format                      : E-AC-3
    Format/Info                 : Enhanced AC-3
    Commercial name             : Dolby Digital Plus
    Codec ID                    : A_EAC3
    Duration                    : 1 h 38 min
    Bit rate mode               : Constant
    Bit rate                    : 640 kb/s
    Channel(s)                  : 6 channels
    Channel layout              : L R C LFE Ls Rs
    Sampling rate               : 48.0 kHz
    Frame rate                  : 31.250 FPS (1536 SPF)
    Compression mode            : Lossy
    Stream size                 : 452 MiB (4%)
    Title                       : Español Latino [CinemaniaHDD]
    Language                    : Spanish
    Service kind                : Complete Main
    Default                     : Yes
    Forced                      : No

    Audio #2
    ID                          : 3
    Format                      : E-AC-3
    Format/Info                 : Enhanced AC-3
    Commercial name             : Dolby Digital Plus
    Codec ID                    : A_EAC3
    Duration                    : 1 h 38 min
    Bit rate mode               : Constant
    Bit rate                    : 640 kb/s
    Channel(s)                  : 6 channels
    Channel layout              : L R C LFE Ls Rs
    Sampling rate               : 48.0 kHz
    Frame rate                  : 31.250 FPS (1536 SPF)
    Compression mode            : Lossy
    Stream size                 : 452 MiB (4%)
    Title                       : Ingles [CinemaniaHDD]
    Language                    : English
    Service kind                : Complete Main
    Default                     : No
    Forced                      : No

    Audio #3
    ID                          : 4
    Format                      : AC-3
    Format/Info                 : Audio Coding 3
    Commercial name             : Dolby Digital
    Codec ID                    : A_AC3
    Duration                    : 1 h 38 min
    Bit rate mode               : Constant
    Bit rate                    : 640 kb/s
    Channel(s)                  : 6 channels
    Channel layout              : L R C LFE Ls Rs
    Sampling rate               : 48.0 kHz
    Frame rate                  : 31.250 FPS (1536 SPF)
    Compression mode            : Lossy
    Stream size                 : 452 MiB (4%)
    Title                       : Español Latino AC3[CinemaniaHDD]
    Language                    : Spanish
    Service kind                : Complete Main
    Default                     : No
    Forced                      : No

    Text #1
    ID                          : 5
    Format                      : UTF-8
    Codec ID                    : S_TEXT/UTF8
    Codec ID/Info               : UTF-8 Plain Text
    Duration                    : 1 h 16 min
    Bit rate                    : 0 b/s
    Count of elements           : 22
    Stream size                 : 476 Bytes (0%)
    Title                       : Forzados-SRT [CinemaniaHDD]
    Language                    : Spanish
    Default                     : Yes
    Forced                      : No

    Text #2
    ID                          : 6
    Format                      : UTF-8
    Codec ID                    : S_TEXT/UTF8
    Codec ID/Info               : UTF-8 Plain Text
    Duration                    : 1 h 33 min
    Bit rate                    : 55 b/s
    Count of elements           : 1045
    Stream size                 : 37.9 KiB (0%)
    Title                       : Español-SRT [CinemaniaHDD]
    Language                    : Spanish
    Default                     : No
    Forced                      : No

    Text #3
    ID                          : 7
    Format                      : UTF-8
    Codec ID                    : S_TEXT/UTF8
    Codec ID/Info               : UTF-8 Plain Text
    Duration                    : 1 h 34 min
    Bit rate                    : 65 b/s
    Count of elements           : 1257
    Stream size                 : 45.6 KiB (0%)
    Title                       : Ingles-SRT [CinemaniaHDD]
    Language                    : English
    Default                     : No
    Forced                      : No

    Menu
    00:00:00.000                : Aqua La Vista (Main Titles)
    00:03:36.800                : Art Gallery/Bike Messenger
    00:08:12.158                : House Rules
    00:10:51.650                : Meet Clark Devlin
    00:13:17.087                : CSA Headquarters/Bug Store
    00:19:14.778                : Skateboard Bomb
    00:24:43.356                : Banning International
    00:27:08.584                : Tuxedo Demo
    00:31:23.005                : Nice Rack
    00:35:34.506                : Rope Fighting
    00:41:18.724                : A Little Over Amped
    00:44:48.517                : Meet James Brown
    00:49:04.439                : The Last Emperor of Soul
    00:57:09.202                : Cheryl's Hospitality Suite
    01:05:19.329                : Walk on Water
    01:12:30.384                : "Clark Devlin" Is Back
    01:17:33.353                : The Tuxedo vs. The Suit
    01:22:37.490                : Awaiting the Queen
    01:28:35.181                : Operation Art Gallery
    01:33:12.249                : Outtakes (End Credits)
    01:38:41.246                : Aqua La Vista (Main Titles)

  • Peso: 11.2 GiB

Sinopsis

Descargar El Smoking (2002) AMZN Web-DL 1080p Latino. Jimmy Tong (Jackie Chan), un taxista que ahora tiene el oficio de chófer, aprende pronto que a la hora de trabajar para el playboy millonario Clark Devlin (Jason Isaacs) sólo existe una regla: jamás se debe tocar el esmoquin, el traje de etiqueta que tanto aprecia Devlin. Pero cuando éste queda temporalmente fuera de combate tras sufrir un explosivo «accidente», Jimmy se pone el esmoquin y descubre que es un traje extraordinario: más que vestirse de color negro, ponérselo equivale a convertirse en cinturón negro. Jimmy se ve bruscamente sumergido en el peligroso mundo del espionaje en unión de una novata compañera (Jennifer Love Hewitt), tan inexperta como él: nuestro héroe se convierte en un involuntario, si bien muy elegante, agente secreto.

Audio Español Latino EAC3 + AC3 5.1 NF – Ingles EAC3 5.1 AMZN

Ficha técnica

Video trailer de la película

Enlaces de descarga

Rip de Bluray

Descargar El Smoking (2002) AMZN Web-DL 1080p Latino




Aportes de DPeliculasHDmega la pass es:dpeliculashdmega.org Aportes de CinemaniaHD la pass es:cinemaniahdd.com

Películas relacionadas

descargar El Smoking (2002) AMZN Web-DL 1080p Latino WEBDL 1080p gratis, El Smoking (2002) AMZN Web-DL 1080p Latino WEBDL mega 1 link, El Smoking (2002) AMZN Web-DL 1080p Latino WEBDL pelicula completa, descargar El Smoking (2002) AMZN Web-DL 1080p Latino WEBDL gratis en mega.

El Smoking (2002) AMZN Web-DL 1080p Latino pelicula full hd, El Smoking (2002) AMZN Web-DL 1080p Latino mega latino, El Smoking (2002) AMZN Web-DL 1080p Latino 4k latino, El Smoking (2002) AMZN Web-DL 1080p Latino pelicula completa, El Smoking (2002) AMZN Web-DL 1080p Latino descargar gratis, descargar El Smoking (2002) AMZN Web-DL 1080p Latino pelicula latino, El Smoking (2002) AMZN Web-DL 1080p Latino 1 link mega, El Smoking (2002) AMZN Web-DL 1080p Latino 1 link google drive, El Smoking (2002) AMZN Web-DL 1080p Latino hd 1080p latino.
Comentarios 0