El Smoking (2002) 4K UHD HDR WEB Latino

126 vistas
1 estrella2 estrellas3 estrellas4 estrellas5 estrellas (Ninguna valoración todavía)
Cargando...

Información de El Smoking (2002) 4K UHD HDR WEB Latino

Datos de la película

  • Calidad: WEBDL
  • Audio: Se especifica abajo de la Sinopsis
  • Subtitulos: Español Latino SRT - Ingles SRT
  • Resolución: 3840x2080p
  • Formato: MKV
  • Codec: HEVC
  • Encoder: CinefiloCool
  • Mediainfo: Clic para Mostrar Datos Ver
  • El Smoking (2002) UHD HDR WEB Latino-CMHDD.mkv
    Format                      : Matroska
    Format version              : Version 4
    File size                   : 11.7 GiB
    Duration                    : 1 h 38 min
    Overall bit rate            : 16.9 Mb/s
    Movie name                  : The Tuxedo (2002) CinemaniaHDD.Net
    Encoded date                : UTC 2021-05-13 06:16:38
    Writing application         : mkvmerge v56.1.0 ('My Friend') 64-bit
    Writing library             : libebml v1.4.2 + libmatroska v1.6.4
    Attachments                 : CINEMANIAHD.png

    Video
    ID                          : 1
    Format                      : HEVC
    Format/Info                 : High Efficiency Video Coding
    Format profile              : Main 10@L5@Main
    HDR format                  : SMPTE ST 2094 App 4, Version 1, HDR10+ Profile B compatible
    Codec ID                    : V_MPEGH/ISO/HEVC
    Duration                    : 1 h 38 min
    Bit rate                    : 15.0 Mb/s
    Width                       : 3 840 pixels
    Height                      : 2 080 pixels
    Display aspect ratio        : 1.85:1
    Frame rate mode             : Constant
    Frame rate                  : 23.976 (24000/1001) FPS
    Color space                 : YUV
    Chroma subsampling          : 4:2:0
    Bit depth                   : 10 bits
    Bits/(Pixel*Frame)          : 0.078
    Stream size                 : 10.3 GiB (89%)
    Title                       : Web 2160p HDR [CinemaniaHDD]
    Language                    : English
    Default                     : Yes
    Forced                      : No
    Color range                 : Limited
    Color primaries             : BT.2020
    Transfer characteristics    : PQ
    Matrix coefficients         : BT.2020 non-constant
    Mastering display color pri : Display P3
    Mastering display luminance : min: 0.0001 cd/m2, max: 1000 cd/m2
    Maximum Content Light Level : 1000 cd/m2
    Maximum Frame-Average Light : 501 cd/m2

    Audio #1
    ID                          : 2
    Format                      : E-AC-3
    Format/Info                 : Enhanced AC-3
    Commercial name             : Dolby Digital Plus
    Codec ID                    : A_EAC3
    Duration                    : 1 h 38 min
    Bit rate mode               : Constant
    Bit rate                    : 640 kb/s
    Channel(s)                  : 6 channels
    Channel layout              : L R C LFE Ls Rs
    Sampling rate               : 48.0 kHz
    Frame rate                  : 31.250 FPS (1536 SPF)
    Compression mode            : Lossy
    Stream size                 : 452 MiB (4%)
    Title                       : Español Latino [CinemaniaHDD]
    Language                    : Spanish
    Service kind                : Complete Main
    Default                     : Yes
    Forced                      : No

    Audio #2
    ID                          : 3
    Format                      : E-AC-3
    Format/Info                 : Enhanced AC-3
    Commercial name             : Dolby Digital Plus
    Codec ID                    : A_EAC3
    Duration                    : 1 h 38 min
    Bit rate mode               : Constant
    Bit rate                    : 640 kb/s
    Channel(s)                  : 6 channels
    Channel layout              : L R C LFE Ls Rs
    Sampling rate               : 48.0 kHz
    Frame rate                  : 31.250 FPS (1536 SPF)
    Compression mode            : Lossy
    Stream size                 : 452 MiB (4%)
    Title                       : Ingles [CinemaniaHDD]
    Language                    : English
    Service kind                : Complete Main
    Default                     : No
    Forced                      : No

    Audio #3
    ID                          : 4
    Format                      : AC-3
    Format/Info                 : Audio Coding 3
    Commercial name             : Dolby Digital
    Codec ID                    : A_AC3
    Duration                    : 1 h 38 min
    Bit rate mode               : Constant
    Bit rate                    : 640 kb/s
    Channel(s)                  : 6 channels
    Channel layout              : L R C LFE Ls Rs
    Sampling rate               : 48.0 kHz
    Frame rate                  : 31.250 FPS (1536 SPF)
    Compression mode            : Lossy
    Stream size                 : 452 MiB (4%)
    Title                       : Español Latino AC3[CinemaniaHDD]
    Language                    : Spanish
    Service kind                : Complete Main
    Default                     : No
    Forced                      : No

    Text #1
    ID                          : 5
    Format                      : UTF-8
    Codec ID                    : S_TEXT/UTF8
    Codec ID/Info               : UTF-8 Plain Text
    Duration                    : 1 h 16 min
    Bit rate                    : 0 b/s
    Count of elements           : 22
    Stream size                 : 476 Bytes (0%)
    Title                       : Forzados-SRT [CinemaniaHDD]
    Language                    : Spanish
    Default                     : Yes
    Forced                      : No

    Text #2
    ID                          : 6
    Format                      : UTF-8
    Codec ID                    : S_TEXT/UTF8
    Codec ID/Info               : UTF-8 Plain Text
    Duration                    : 1 h 33 min
    Bit rate                    : 55 b/s
    Count of elements           : 1045
    Stream size                 : 37.9 KiB (0%)
    Title                       : Español-SRT [CinemaniaHDD]
    Language                    : Spanish
    Default                     : No
    Forced                      : No

    Text #3
    ID                          : 7
    Format                      : UTF-8
    Codec ID                    : S_TEXT/UTF8
    Codec ID/Info               : UTF-8 Plain Text
    Duration                    : 1 h 32 min
    Bit rate                    : 70 b/s
    Count of elements           : 1400
    Stream size                 : 47.5 KiB (0%)
    Title                       : Ingles-SRT [CinemaniaHDD]
    Language                    : English
    Default                     : No
    Forced                      : No

    Menu
    00:00:00.000                : Aqua La Vista (Main Titles)
    00:03:36.800                : Art Gallery/Bike Messenger
    00:08:12.158                : House Rules
    00:10:51.650                : Meet Clark Devlin
    00:13:17.087                : CSA Headquarters/Bug Store
    00:19:14.778                : Skateboard Bomb
    00:24:43.356                : Banning International
    00:27:08.584                : Tuxedo Demo
    00:31:23.005                : Nice Rack
    00:35:34.506                : Rope Fighting
    00:41:18.724                : A Little Over Amped
    00:44:48.517                : Meet James Brown
    00:49:04.439                : The Last Emperor of Soul
    00:57:09.202                : Cheryl's Hospitality Suite
    01:05:19.329                : Walk on Water
    01:12:30.384                : "Clark Devlin" Is Back
    01:17:33.353                : The Tuxedo vs. The Suit
    01:22:37.490                : Awaiting the Queen
    01:28:35.181                : Operation Art Gallery
    01:33:12.249                : Outtakes (End Credits)
    01:38:41.246                : Aqua La Vista (Main Titles)

  • Peso: 11.7 GiB

Sinopsis

Descargar El Smoking (2002) 4K UHD HDR WEB Latino. Jimmy Tong (Jackie Chan), un taxista que ahora tiene el oficio de chófer, aprende pronto que a la hora de trabajar para el playboy millonario Clark Devlin (Jason Isaacs) sólo existe una regla: jamás se debe tocar el esmoquin, el traje de etiqueta que tanto aprecia Devlin. Pero cuando éste queda temporalmente fuera de combate tras sufrir un explosivo «accidente», Jimmy se pone el esmoquin y descubre que es un traje extraordinario: más que vestirse de color negro, ponérselo equivale a convertirse en cinturón negro. Jimmy se ve bruscamente sumergido en el peligroso mundo del espionaje en unión de una novata compañera (Jennifer Love Hewitt), tan inexperta como él: nuestro héroe se convierte en un involuntario, si bien muy elegante, agente secreto.

Audio Español Latino EAC3 + AC3 5.1 NF – Ingles EAC3 5.1 AMZN

Ficha técnica

Video trailer de la película

Enlaces de descarga

Rip de Bluray

Descargar El Smoking (2002) 4K UHD HDR WEB Latino




Aportes de DPeliculasHDmega la pass es:dpeliculashdmega.org Aportes de CinemaniaHD la pass es:cinemaniahdd.com

Películas relacionadas

  • No, porque me enamoro (2020) AMZN Web-DL 1080p Latino

    No, porque me enamoro (2020) AMZN Web-DL 1080p Latino

    2020
    No, porque me enamoro (2020) AMZN Web-DL 1080p Latino

    0.0 1h 40m 2020

    Descargar No, porque me enamoro (2020) AMZN Web-DL 1080p Latino. Daniela (Sofia de Llaca), una chica...

    Director: Santiago Limón

    Género: Comedia

    Actores: Sofía De Llaca Mata

  • Panico En Casa (2021) AMZN Web-DL 1080p Latino

    Panico En Casa (2021) AMZN Web-DL 1080p Latino

    2021
    Panico En Casa (2021) AMZN Web-DL 1080p Latino

    0.0 1h 22m 2021

    Descargar Panico En Casa (2021) AMZN Web-DL 1080p Latino. Tras dos años de pandemia, un grupo de amigos...

    Director: Will Wernick

    Género: Suspenso

    Actores: Michael Kupisk

  • La Excepcion A La Regla (2016) REMUX 1080p Latino

    La Excepcion A La Regla (2016) REMUX 1080p Latino

    2016
    La Excepcion A La Regla (2016) REMUX 1080p Latino

    5.0 2h 6m 2016

    Descargar La Excepcion A La Regla (2016) REMUX 1080p Latino. Hollywood, año 1958. La joven baptista...

    Director: Warren Beatty

    Género: Comedia

    Actores: Warren Beatty

  • Fuerza antigángster (2013) REMUX 1080p Latino

    Fuerza antigángster (2013) REMUX 1080p Latino

    2013
    Fuerza antigángster (2013) REMUX 1080p Latino

    5.0 1h 53m 2013

    Descargar Fuerza antigángster (2013) REMUX 1080p Latino. Los Angeles, 1949. Mickey Cohen (Sean Penn,...

    Director: Ruben Fleischer

    Género: Acción

    Actores: Yvette Tucker

El Smoking (2002) 4K UHD HDR WEB Latino pelicula full hd, El Smoking (2002) 4K UHD HDR WEB Latino mega latino, El Smoking (2002) 4K UHD HDR WEB Latino 4k latino, El Smoking (2002) 4K UHD HDR WEB Latino pelicula completa, El Smoking (2002) 4K UHD HDR WEB Latino descargar gratis, descargar El Smoking (2002) 4K UHD HDR WEB Latino pelicula latino, El Smoking (2002) 4K UHD HDR WEB Latino 1 link mega, El Smoking (2002) 4K UHD HDR WEB Latino 1 link google drive, El Smoking (2002) 4K UHD HDR WEB Latino hd 1080p latino.
Comentarios 0