×

¿Problemas para descargar con Mozilla, EDGE? Deshabilita la opción "Abrir vinculos en una pestaña nueva" tal como lo muestra ésta imagen.

The Turning (2020) WEB-DL 1080p Latino

1.759 vistas

Información de The Turning (2020) WEB-DL 1080p Latino

Datos de la película

  • Calidad: WEBDL
  • Audio: Español Latino AC3 2.0 iTunes - Ingles AC3 5.1 iTunes
  • Subtitulos: Español Latino SRT- FORZADOS SRT
  • Resolución: 1920x800
  • Formato: MKV
  • Codec: H.264
  • Encoder: cinemaniahdd
  • Mediainfo: Clic para Mostrar Datos Ver
  • The Turning (2020) WEB-DL 1080p Latino.mkv
    Format                      : Matroska
    Format version              : Version 4
    File size                   : 3.42 GiB
    Duration                    : 1 h 34 min
    Overall bit rate            : 5 189 kb/s
    Movie name                  : The Turning (2020) - CinemaniaHDD.Net
    Encoded date                : UTC 2020-04-07 06:22:05
    Writing application         : mkvmerge v42.0.0 ('Overtime') 64-bit
    Writing library             : libebml v1.3.10 + libmatroska v1.5.2

    Video
    ID                          : 1
    Format                      : AVC
    Format/Info                 : Advanced Video Codec
    Format profile              : High@L4
    Format settings             : CABAC / 5 Ref Frames
    Format settings, CABAC      : Yes
    Format settings, ReFrames   : 5 frames
    Codec ID                    : V_MPEG4/ISO/AVC
    Duration                    : 1 h 34 min
    Bit rate                    : 4 547 kb/s
    Width                       : 1 920 pixels
    Height                      : 800 pixels
    Display aspect ratio        : 2.40:1
    Frame rate mode             : Constant
    Frame rate                  : 23.976 (24000/1001) FPS
    Color space                 : YUV
    Chroma subsampling          : 4:2:0
    Bit depth                   : 8 bits
    Scan type                   : Progressive
    Bits/(Pixel*Frame)          : 0.123
    Stream size                 : 3.00 GiB (88%)
    Title                       : CinemaniaHDD
    Language                    : English
    Default                     : Yes
    Forced                      : No
    Color range                 : Limited
    Color primaries             : BT.709
    Transfer characteristics    : BT.709
    Matrix coefficients         : BT.709

    Audio #1
    ID                          : 2
    Format                      : AC-3
    Format/Info                 : Audio Coding 3
    Commercial name             : Dolby Digital
    Codec ID                    : A_AC3
    Duration                    : 1 h 34 min
    Bit rate mode               : Constant
    Bit rate                    : 256 kb/s
    Channel(s)                  : 2 channels
    Channel layout              : L R
    Sampling rate               : 48.0 kHz
    Frame rate                  : 31.250 FPS (1536 SPF)
    Bit depth                   : 16 bits
    Compression mode            : Lossy
    Stream size                 : 173 MiB (5%)
    Title                       : Español latino [CinemaniaHDD]
    Language                    : Spanish
    Service kind                : Complete Main
    Default                     : Yes
    Forced                      : No

    Audio #2
    ID                          : 3
    Format                      : AC-3
    Format/Info                 : Audio Coding 3
    Commercial name             : Dolby Digital
    Codec ID                    : A_AC3
    Duration                    : 1 h 34 min
    Bit rate mode               : Constant
    Bit rate                    : 384 kb/s
    Channel(s)                  : 6 channels
    Channel layout              : L R C LFE Ls Rs
    Sampling rate               : 48.0 kHz
    Frame rate                  : 31.250 FPS (1536 SPF)
    Bit depth                   : 16 bits
    Compression mode            : Lossy
    Stream size                 : 260 MiB (7%)
    Title                       : Inglés [CinemaniaHDD]
    Language                    : English
    Service kind                : Complete Main
    Default                     : No
    Forced                      : No

    Text #1
    ID                          : 4
    Format                      : UTF-8
    Codec ID                    : S_TEXT/UTF8
    Codec ID/Info               : UTF-8 Plain Text
    Duration                    : 1 h 13 min
    Bit rate                    : 0 b/s
    Count of elements           : 6
    Stream size                 : 202 Bytes (0%)
    Title                       : Forzados [CinemaniaHDD]
    Language                    : Spanish
    Default                     : Yes
    Forced                      : Yes

    Text #2
    ID                          : 5
    Format                      : UTF-8
    Codec ID                    : S_TEXT/UTF8
    Codec ID/Info               : UTF-8 Plain Text
    Duration                    : 1 h 28 min
    Bit rate                    : 33 b/s
    Count of elements           : 850
    Stream size                 : 21.4 KiB (0%)
    Title                       : Español latino [CinemaniaHDD]
    Language                    : Spanish
    Default                     : No
    Forced                      : No

    Menu
    00:00:00.000                : en:1
    00:05:50.350                : en:2
    00:11:21.972                : en:3
    00:14:30.952                : en:4
    00:17:45.645                : en:5
    00:20:38.401                : en:6
    00:26:16.197                : en:7
    00:31:38.811                : en:8
    00:37:43.466                : en:9
    00:41:24.228                : en:10
    00:45:46.197                : en:11
    00:50:58.925                : en:12
    00:55:30.905                : en:13
    00:59:10.499                : en:14
    01:03:35.555                : en:15
    01:10:33.889                : en:16
    01:15:21.760                : en:17
    01:20:01.498                : en:18
    01:25:32.120                : en:19
    01:29:57.676                : en:20

     

  • Peso: 3.42 GiB

Sinopsis

Una joven institutriz es contratada por un hombre que se ha convertido en el tutor de sus sobrinos tras las muerte de sus padres. Pronto descubrirá que tanto los niños como la casa esconden oscuros secretos y las cosas no son lo que aparentan. Adaptación moderna de la obra de Henry james, «The Turn of the Screw».

Ficha técnica

Video trailer de la película

Enlaces de descarga

Rip de Bluray

Descargar The Turning (2020) WEB-DL 1080p Latino




Aportes de DPeliculasHDmega la pass es:dpeliculashdmega.org Aportes de CinemaniaHD la pass es:cinemaniahdd.com
Guardado en : Suspenso , Terror

Películas relacionadas

  • Emily la criminal (2022) HD 1080p Latino

    Emily la criminal (2022) HD 1080p Latino

    2022
    Emily la criminal (2022) HD 1080p Latino

    1h 37m 2022

    Descargar Emily la criminal (2022) HD 1080p Latino. Emily, que tiene una deuda estudiantil y está excluida...

    Director: John Patton Ford

    Género: Crimen

    Actores: Theo Rossi

  • Emily la criminal (2022) REMUX 1080p Latino

    Emily la criminal (2022) REMUX 1080p Latino

    2022
    Emily la criminal (2022) REMUX 1080p Latino

    1h 37m 2022

    Descargar Emily la criminal (2022) REMUX 1080p Latino. Emily, que tiene una deuda estudiantil y está...

    Director: John Patton Ford

    Género: Crimen

    Actores: Theo Rossi

  • Herencia peligrosa (2022) HD 1080p Latino

    Herencia peligrosa (2022) HD 1080p Latino

    2022
    Herencia peligrosa (2022) HD 1080p Latino

    1h 34m 2022

    Descargar Herencia peligrosa (2022) HD 1080p Latino. Tres ladrones se hacen con el yate de lujo de una...

    Director: Declan Whitebloom

    Género: Acción

    Actores: Vernon Davis

descargar The Turning (2020) WEB-DL 1080p Latino WEBDL 1080p gratis, The Turning (2020) WEB-DL 1080p Latino WEBDL mega 1 link, The Turning (2020) WEB-DL 1080p Latino WEBDL pelicula completa, descargar The Turning (2020) WEB-DL 1080p Latino WEBDL gratis en mega.

The Turning (2020) WEB-DL 1080p Latino pelicula full hd, The Turning (2020) WEB-DL 1080p Latino mega latino, The Turning (2020) WEB-DL 1080p Latino 4k latino, The Turning (2020) WEB-DL 1080p Latino pelicula completa, The Turning (2020) WEB-DL 1080p Latino descargar gratis, descargar The Turning (2020) WEB-DL 1080p Latino pelicula latino, The Turning (2020) WEB-DL 1080p Latino 1 link mega, The Turning (2020) WEB-DL 1080p Latino 1 link google drive, The Turning (2020) WEB-DL 1080p Latino hd 1080p latino.
Comentarios 0