×

¿Problemas para descargar con Mozilla, EDGE? Deshabilita la opción "Abrir vinculos en una pestaña nueva" tal como lo muestra ésta imagen.

The Turkey Bowl (2019) WEB-DL 1080p Latino

872 vistas

Información de The Turkey Bowl (2019) WEB-DL 1080p Latino

Datos de la película

  • Calidad: WEBDL
  • Audio: Español Latino AC3 2.0 iTunes - Ingles AC3 5.1 iTunes
  • Subtitulos: Español Latino SRT- FORZADOS SRT
  • Resolución: 1920x798
  • Formato: MKV
  • Codec: H.264
  • Encoder: cinemaniahdd
  • Mediainfo: Clic para Mostrar Datos Ver
  • The Turkey Bowl (2019) WEB-DL 1080p Latino.mkv
    Format                      : Matroska
    Format version              : Version 4
    File size                   : 4.36 GiB
    Duration                    : 2 h 0 min
    Overall bit rate            : 5 177 kb/s
    Movie name                  : The Turkey Bowl (2019) - CinemaniaHDD.Net
    Encoded date                : UTC 2019-11-15 09:21:07
    Writing application         : mkvmerge v38.0.0 ('The Silent Type') 64-bit
    Writing library             : libebml v1.3.9 + libmatroska v1.5.2

    Video
    ID                          : 1
    Format                      : AVC
    Format/Info                 : Advanced Video Codec
    Format profile              : High@L4
    Format settings             : CABAC / 5 Ref Frames
    Format settings, CABAC      : Yes
    Format settings, ReFrames   : 5 frames
    Codec ID                    : V_MPEG4/ISO/AVC
    Duration                    : 2 h 0 min
    Bit rate                    : 4 535 kb/s
    Width                       : 1 920 pixels
    Height                      : 798 pixels
    Display aspect ratio        : 2.40:1
    Frame rate mode             : Constant
    Frame rate                  : 23.976 (24000/1001) FPS
    Color space                 : YUV
    Chroma subsampling          : 4:2:0
    Bit depth                   : 8 bits
    Scan type                   : Progressive
    Bits/(Pixel*Frame)          : 0.123
    Stream size                 : 3.82 GiB (88%)
    Title                       : CinemaniaHDD
    Language                    : English
    Default                     : Yes
    Forced                      : No
    Color range                 : Limited
    Color primaries             : BT.709
    Transfer characteristics    : BT.709
    Matrix coefficients         : BT.709

    Audio #1
    ID                          : 2
    Format                      : AC-3
    Format/Info                 : Audio Coding 3
    Commercial name             : Dolby Digital
    Codec ID                    : A_AC3
    Duration                    : 2 h 0 min
    Bit rate mode               : Constant
    Bit rate                    : 256 kb/s
    Channel(s)                  : 2 channels
    Channel layout              : L R
    Sampling rate               : 48.0 kHz
    Frame rate                  : 31.250 FPS (1536 SPF)
    Bit depth                   : 16 bits
    Compression mode            : Lossy
    Stream size                 : 221 MiB (5%)
    Title                       : Español latino [CinemaniaHDD]
    Language                    : Spanish
    Service kind                : Complete Main
    Default                     : Yes
    Forced                      : No

    Audio #2
    ID                          : 3
    Format                      : AC-3
    Format/Info                 : Audio Coding 3
    Commercial name             : Dolby Digital
    Codec ID                    : A_AC3
    Duration                    : 2 h 0 min
    Bit rate mode               : Constant
    Bit rate                    : 384 kb/s
    Channel(s)                  : 6 channels
    Channel layout              : L R C LFE Ls Rs
    Sampling rate               : 48.0 kHz
    Frame rate                  : 31.250 FPS (1536 SPF)
    Bit depth                   : 16 bits
    Compression mode            : Lossy
    Stream size                 : 331 MiB (7%)
    Title                       : Inglés [CinemaniaHDD]
    Language                    : English
    Service kind                : Complete Main
    Default                     : No
    Forced                      : No

    Text #1
    ID                          : 4
    Format                      : UTF-8
    Codec ID                    : S_TEXT/UTF8
    Codec ID/Info               : UTF-8 Plain Text
    Duration                    : 1 h 51 min
    Bit rate                    : 1 b/s
    Count of elements           : 60
    Stream size                 : 1.32 KiB (0%)
    Title                       : Forzados [CinemaniaHDD]
    Language                    : Spanish
    Default                     : Yes
    Forced                      : Yes

    Text #2
    ID                          : 5
    Format                      : UTF-8
    Codec ID                    : S_TEXT/UTF8
    Codec ID/Info               : UTF-8 Plain Text
    Duration                    : 1 h 55 min
    Bit rate                    : 65 b/s
    Count of elements           : 1945
    Stream size                 : 55.2 KiB (0%)
    Title                       : Español latino [CinemaniaHDD]
    Language                    : Spanish
    Default                     : No
    Forced                      : No

    Menu
    00:00:00.000                : en:1
    00:00:48.000                : en:2
    00:09:41.000                : en:3
    00:21:18.000                : en:4
    00:30:54.000                : en:5
    00:40:13.000                : en:6
    00:50:16.000                : en:7
    00:59:22.000                : en:8
    01:09:39.000                : en:9
    01:19:50.000                : en:10
    01:28:18.000                : en:11
    01:36:28.000                : en:12
    01:45:50.000                : en:13
    01:54:40.000                : en:14

     

  • Peso: 4.36 GiB

Sinopsis

Sus amigos de la escuela secundaria arrastraron a un urbanita de treinta y tantos años a su ciudad natal el Día de Acción de Gracias para terminar The Turkey Bowl, un juego de fútbol épico contra sus rivales que cruzaron la ciudad hace quince años.

Ficha técnica

  • Titulo original: The Turkey Bowl
  • Fecha de lanzamiento: 25-11-2019 (United States of America)
  • Director: Greg Coolidge
  • Género: Comedia

Video trailer de la película

Enlaces de descarga

Rip de Bluray

Descargar The Turkey Bowl (2019) WEB-DL 1080p Latino




Aportes de DPeliculasHDmega la pass es:dpeliculashdmega.org Aportes de CinemaniaHD la pass es:cinemaniahdd.com
Guardado en : Comedia

Películas relacionadas

  • Hombre de familia (2000) REMUX 1080p Latino

    Hombre de familia (2000) REMUX 1080p Latino

    2000
    Hombre de familia (2000) REMUX 1080p Latino

    2h 1m 2000

    Descargar Hombre de familia (2000) REMUX 1080p Latino. Jack Campbell es un egocéntrico broker de Wall...

    Director: Robert Schroer

    Género: Comedia

    Actores: Wass Stevens

  • Te Amo Brother (2009) REMUX 1080p Latino

    Te Amo Brother (2009) REMUX 1080p Latino

    2009
    Te Amo Brother (2009) REMUX 1080p Latino

    1h 45m 2009

    Descargar Te Amo Brother (2009) REMUX 1080p Latino. Peter Klaven (Paul Rudd) es un joven que vive muy...

    Director: Scott Robertson

    Género: Comedia

    Actores: Vicki Davis

  • Asústame (2020) HD 1080p Latino

    Asústame (2020) HD 1080p Latino

    2020
    Asústame (2020) HD 1080p Latino

    1h 44m 2020

    Descargar Asústame (2020) HD 1080p Latino. Durante un corte de energía, dos extraños cuentan historias...

    Director: Josh Ruben

    Género: Comedia

    Actores: Rebecca Drysdale

  • Asústame (2020) PLACEBO Full HD 1080p Latino

    Asústame (2020) PLACEBO Full HD 1080p Latino

    2020
    Asústame (2020) PLACEBO Full HD 1080p Latino

    1h 44m 2020

    Descargar Asústame (2020) PLACEBO Full HD 1080p Latino. Durante un corte de energía, dos extraños...

    Director: Josh Ruben

    Género: Comedia

    Actores: Rebecca Drysdale

descargar The Turkey Bowl (2019) WEB-DL 1080p Latino WEBDL 1080p gratis, The Turkey Bowl (2019) WEB-DL 1080p Latino WEBDL mega 1 link, The Turkey Bowl (2019) WEB-DL 1080p Latino WEBDL pelicula completa, descargar The Turkey Bowl (2019) WEB-DL 1080p Latino WEBDL gratis en mega.

The Turkey Bowl (2019) WEB-DL 1080p Latino pelicula full hd, The Turkey Bowl (2019) WEB-DL 1080p Latino mega latino, The Turkey Bowl (2019) WEB-DL 1080p Latino 4k latino, The Turkey Bowl (2019) WEB-DL 1080p Latino pelicula completa, The Turkey Bowl (2019) WEB-DL 1080p Latino descargar gratis, descargar The Turkey Bowl (2019) WEB-DL 1080p Latino pelicula latino, The Turkey Bowl (2019) WEB-DL 1080p Latino 1 link mega, The Turkey Bowl (2019) WEB-DL 1080p Latino 1 link google drive, The Turkey Bowl (2019) WEB-DL 1080p Latino hd 1080p latino.
Comentarios 0