×

¿Problemas para descargar con Mozilla, EDGE? Deshabilita la opción "Abrir vinculos en una pestaña nueva" tal como lo muestra ésta imagen.

The Tribes of Palos Verdes (2017) WEBDL 1080p Latino

1.348 vistas

Información de The Tribes of Palos Verdes (2017) WEBDL 1080p Latino

the tribes of palos verdes 38143 poster

Datos de la película

  • Calidad: WEBDL
  • Audio: Español Latino AC3 2.0 Capturado - Ingles AC3 5.1 iTunes
  • Subtitulos: Español Latino SRT
  • Resolución: 1920x796p
  • Formato: MKV
  • Codec: H.264
  • Encoder: RARBG
  • Mediainfo: Clic para Mostrar Datos Ver
  • Format                                   : Matroska
    Format version                           : Version 4 / Version 2
    File size                                : 3.71 GiB
    Duration                                 : 1 h 43 min
    Overall bit rate                         : 5 137 kb/s
    Movie name                               : CinemaniHDD.COM
    Encoded date                             : UTC 2017-12-07 05:52:51
    Writing application                      : mkvmerge v17.0.0 ('Be Ur Friend') 64-bit
    Writing library                          : libebml v1.3.5 + libmatroska v1.4.8
    Cover                                    : Yes
    Attachments                              : small_cover.jpg / small_cover_land.jpg / cover.jpg / cover_land.jpg

    Video
    ID                                       : 1
    Format                                   : AVC
    Format/Info                              : Advanced Video Codec
    Format profile                           : High@L4
    Format settings                          : CABAC / 5 Ref Frames
    Format settings, CABAC                   : Yes
    Format settings, RefFrames               : 5 frames
    Codec ID                                 : V_MPEG4/ISO/AVC
    Duration                                 : 1 h 43 min
    Bit rate                                 : 4 558 kb/s
    Width                                    : 1 920 pixels
    Height                                   : 796 pixels
    Display aspect ratio                     : 2.40:1
    Frame rate mode                          : Constant
    Frame rate                               : 23.976 (23976/1000) FPS
    Color space                              : YUV
    Chroma subsampling                       : 4:2:0
    Bit depth                                : 8 bits
    Scan type                                : Progressive
    Bits/(Pixel*Frame)                       : 0.124
    Stream size                              : 3.30 GiB (89%)
    Title                                    : The.Tribes.of.Palos.Verdes.2017.1080p.WEB-DL.DD5.1.H264-FGT
    Language                                 : English
    Default                                  : Yes
    Forced                                   : No
    Color range                              : Limited
    Color primaries                          : BT.709
    Transfer characteristics                 : BT.709
    Matrix coefficients                      : BT.709

    Audio #1
    ID                                       : 2
    Format                                   : AC-3
    Format/Info                              : Audio Coding 3
    Format settings, Endianness              : Big
    Codec ID                                 : A_AC3
    Duration                                 : 1 h 43 min
    Bit rate mode                            : Constant
    Bit rate                                 : 192 kb/s
    Channel(s)                               : 2 channels
    Channel positions                        : Front: L R
    Sampling rate                            : 48.0 kHz
    Frame rate                               : 31.250 FPS (1536 SPF)
    Bit depth                                : 16 bits
    Compression mode                         : Lossy
    Delay relative to video                  : -42 ms
    Stream size                              : 142 MiB (4%)
    Language                                 : Spanish
    Service kind                             : Complete Main
    Default                                  : Yes
    Forced                                   : No

    Audio #2
    ID                                       : 3
    Format                                   : AC-3
    Format/Info                              : Audio Coding 3
    Format settings, Endianness              : Big
    Codec ID                                 : A_AC3
    Duration                                 : 1 h 43 min
    Bit rate mode                            : Constant
    Bit rate                                 : 384 kb/s
    Channel(s)                               : 6 channels
    Channel positions                        : Front: L C R, Side: L R, LFE
    Sampling rate                            : 48.0 kHz
    Frame rate                               : 31.250 FPS (1536 SPF)
    Bit depth                                : 16 bits
    Compression mode                         : Lossy
    Delay relative to video                  : -42 ms
    Stream size                              : 284 MiB (7%)
    Language                                 : English
    Service kind                             : Complete Main
    Default                                  : No
    Forced                                   : No

    Text
    ID                                       : 4
    Format                                   : UTF-8
    Codec ID                                 : S_TEXT/UTF8
    Codec ID/Info                            : UTF-8 Plain Text
    Duration                                 : 1 h 38 min
    Bit rate                                 : 48 b/s
    Count of elements                        : 1035
    Stream size                              : 35.1 KiB (0%)
    Language                                 : Spanish
    Default                                  : Yes
    Forced                                   : No

    Menu
    00:00:00.000                             : en:1
    00:12:19.864                             : en:2
    00:23:56.810                             : en:3
    00:37:04.556                             : en:4
    00:46:28.786                             : en:5
    00:55:33.205                             : en:6
    01:06:44.125                             : en:7
    01:16:30.336                             : en:8
    01:26:57.546                             : en:9
    01:39:26.962                             : en:10

  • Peso: 3.71 GiB

Sinopsis

Cuando la situación en su idílico Palos Verdes se vuelve inestable, la joven Medina intenta ser feliz surfeando.

Ficha técnica

Video trailer de la película

Enlaces de descarga

Rip de Bluray

Descargar The Tribes of Palos Verdes (2017) WEBDL 1080p Latino




Aportes de DPeliculasHDmega la pass es:dpeliculashdmega.org Aportes de CinemaniaHD la pass es:cinemaniahdd.com Aportes recientes:cinemaniahdd.net
Guardado en : Drama

Películas relacionadas

descargar The Tribes of Palos Verdes (2017) WEBDL 1080p Latino WEBDL 1080p gratis, The Tribes of Palos Verdes (2017) WEBDL 1080p Latino WEBDL mega 1 link, The Tribes of Palos Verdes (2017) WEBDL 1080p Latino WEBDL pelicula completa, descargar The Tribes of Palos Verdes (2017) WEBDL 1080p Latino WEBDL gratis en mega.

The Tribes of Palos Verdes (2017) WEBDL 1080p Latino pelicula full hd, The Tribes of Palos Verdes (2017) WEBDL 1080p Latino mega latino, The Tribes of Palos Verdes (2017) WEBDL 1080p Latino 4k latino, The Tribes of Palos Verdes (2017) WEBDL 1080p Latino pelicula completa, The Tribes of Palos Verdes (2017) WEBDL 1080p Latino descargar gratis, descargar The Tribes of Palos Verdes (2017) WEBDL 1080p Latino pelicula latino, The Tribes of Palos Verdes (2017) WEBDL 1080p Latino 1 link mega, The Tribes of Palos Verdes (2017) WEBDL 1080p Latino 1 link google drive, The Tribes of Palos Verdes (2017) WEBDL 1080p Latino hd 1080p latino.
Comentarios 0