×

¿Problemas para descargar con Mozilla, EDGE? Deshabilita la opción "Abrir vinculos en una pestaña nueva" tal como lo muestra ésta imagen.

The Tomorrow War (2021) AMZN WEB-DL 1080p Latino

327 vistas

Información de The Tomorrow War (2021) AMZN WEB-DL 1080p Latino

Datos de la película

  • Calidad: 1080p
  • Audio: Español Latino E-AC3 5.1 AMAZON - Ingles E-AC3 5.1 AMAZON
  • Subtitulos: Español Latino SRT- FORZADOS SRT
  • Resolución: 1920x800
  • Formato: MKV
  • Codec: H.264
  • Encoder: cinemaniahdd
  • Mediainfo: Clic para Mostrar Datos Ver
  • The Tomorrow War (2021) AMZN WEB-DL 1080p Latino [CNMNHDD].mkv
    Format                      : Matroska
    Format version              : Version 4
    File size                   : 9.57 GiB
    Duration                    : 2 h 18 min
    Overall bit rate            : 9 925 kb/s
    Movie name                  : The Tomorrow War (2021) - CinemaniaHDD.Net
    Encoded date                : UTC 2021-07-02 00:43:46
    Writing application         : mkvmerge v56.1.0 ('My Friend') 64-bit
    Writing library             : libebml v1.4.2 + libmatroska v1.6.4

    Video
    ID                          : 1
    Format                      : AVC
    Format/Info                 : Advanced Video Codec
    Format profile              : High@L4
    Format settings             : CABAC / 4 Ref Frames
    Format settings, CABAC      : Yes
    Format settings, Reference  : 4 frames
    Codec ID                    : V_MPEG4/ISO/AVC
    Duration                    : 2 h 18 min
    Bit rate mode               : Constant
    Bit rate                    : 8 002 kb/s
    Nominal bit rate            : 10 000 kb/s
    Width                       : 1 920 pixels
    Height                      : 800 pixels
    Display aspect ratio        : 2.40:1
    Frame rate mode             : Constant
    Frame rate                  : 23.976 (24000/1001) FPS
    Color space                 : YUV
    Chroma subsampling          : 4:2:0
    Bit depth                   : 8 bits
    Scan type                   : Progressive
    Bits/(Pixel*Frame)          : 0.217
    Stream size                 : 7.72 GiB (81%)
    Title                       : CinemaniaHDD
    Default                     : Yes
    Forced                      : No
    Color range                 : Limited
    Color primaries             : BT.709
    Transfer characteristics    : BT.709
    Matrix coefficients         : BT.709

    Audio #1
    ID                          : 2
    Format                      : AC-3
    Format/Info                 : Audio Coding 3
    Commercial name             : Dolby Digital
    Codec ID                    : A_AC3
    Duration                    : 2 h 18 min
    Bit rate mode               : Constant
    Bit rate                    : 640 kb/s
    Channel(s)                  : 6 channels
    Channel layout              : L R C LFE Ls Rs
    Sampling rate               : 48.0 kHz
    Frame rate                  : 31.250 FPS (1536 SPF)
    Compression mode            : Lossy
    Stream size                 : 632 MiB (6%)
    Title                       : Español latino - AC3 [CinemaniaHDD]
    Language                    : Spanish
    Service kind                : Complete Main
    Default                     : Yes
    Forced                      : No

    Audio #2
    ID                          : 3
    Format                      : E-AC-3
    Format/Info                 : Enhanced AC-3
    Commercial name             : Dolby Digital Plus
    Codec ID                    : A_EAC3
    Duration                    : 2 h 18 min
    Bit rate mode               : Constant
    Bit rate                    : 640 kb/s
    Channel(s)                  : 6 channels
    Channel layout              : L R C LFE Ls Rs
    Sampling rate               : 48.0 kHz
    Frame rate                  : 31.250 FPS (1536 SPF)
    Compression mode            : Lossy
    Stream size                 : 632 MiB (6%)
    Title                       : Español latino - E-AC3 [CinemaniaHDD]
    Language                    : Spanish
    Service kind                : Complete Main
    Default                     : No
    Forced                      : No

    Audio #3
    ID                          : 4
    Format                      : E-AC-3
    Format/Info                 : Enhanced AC-3
    Commercial name             : Dolby Digital Plus
    Codec ID                    : A_EAC3
    Duration                    : 2 h 18 min
    Bit rate mode               : Constant
    Bit rate                    : 640 kb/s
    Channel(s)                  : 6 channels
    Channel layout              : L R C LFE Ls Rs
    Sampling rate               : 48.0 kHz
    Frame rate                  : 31.250 FPS (1536 SPF)
    Compression mode            : Lossy
    Stream size                 : 632 MiB (6%)
    Title                       : Inglés - E-AC3 [CinemaniaHDD]
    Language                    : English
    Service kind                : Complete Main
    Default                     : No
    Forced                      : No

    Text #1
    ID                          : 5
    Format                      : UTF-8
    Codec ID                    : S_TEXT/UTF8
    Codec ID/Info               : UTF-8 Plain Text
    Duration                    : 1 h 58 min
    Bit rate                    : 0 b/s
    Count of elements           : 13
    Stream size                 : 429 Bytes (0%)
    Title                       : Forzados [CinemaniaHDD]
    Language                    : Spanish
    Default                     : Yes
    Forced                      : Yes

    Text #2
    ID                          : 6
    Format                      : UTF-8
    Codec ID                    : S_TEXT/UTF8
    Codec ID/Info               : UTF-8 Plain Text
    Duration                    : 2 h 16 min
    Bit rate                    : 47 b/s
    Count of elements           : 1483
    Stream size                 : 47.3 KiB (0%)
    Title                       : Español latino [CinemaniaHDD]
    Language                    : Spanish
    Default                     : No
    Forced                      : No

    Text #3
    ID                          : 7
    Format                      : UTF-8
    Codec ID                    : S_TEXT/UTF8
    Codec ID/Info               : UTF-8 Plain Text
    Duration                    : 2 h 17 min
    Bit rate                    : 61 b/s
    Count of elements           : 2195
    Stream size                 : 61.9 KiB (0%)
    Title                       : Inglés [CC] [CinemaniaHDD]
    Language                    : English
    Default                     : No
    Forced                      : No

     

  • Peso: 9.57 GiB

Sinopsis

Un día el mundo se paraliza cuando un grupo de viajeros en el tiempo se transporta desde el año 2051 para entregar un mensaje urgente: La humanidad está perdiendo la guerra mundial contra una especie alienígena letal. La única esperanza de supervivencia es que los soldados y los ciudadanos del presente sean transportados al futuro y se unan a la lucha. Entre los reclutados está el profesor de instituto y padre de familia Dan Forester (Chris Pratt) quien, decidido a salvar el mundo por su hija, se une a una brillante científica (Yvonne Strahovski) y a su padre (J.K. Simmons) en una búsqueda desesperada por reescribir el destino del planeta.

Ficha técnica

Video trailer de la película

Enlaces de descarga

Rip de Bluray

Descargar The Tomorrow War (2021) AMZN WEB-DL 1080p Latino




Aportes de DPeliculasHDmega la pass es:dpeliculashdmega.org Aportes de CinemaniaHD la pass es:cinemaniahdd.com
Guardado en : Acción , Ciencia ficción

Películas relacionadas

descargar The Tomorrow War (2021) AMZN WEB-DL 1080p Latino 1080p 1080p gratis, The Tomorrow War (2021) AMZN WEB-DL 1080p Latino 1080p mega 1 link, The Tomorrow War (2021) AMZN WEB-DL 1080p Latino 1080p pelicula completa, descargar The Tomorrow War (2021) AMZN WEB-DL 1080p Latino 1080p gratis en mega.

The Tomorrow War (2021) AMZN WEB-DL 1080p Latino pelicula full hd, The Tomorrow War (2021) AMZN WEB-DL 1080p Latino mega latino, The Tomorrow War (2021) AMZN WEB-DL 1080p Latino 4k latino, The Tomorrow War (2021) AMZN WEB-DL 1080p Latino pelicula completa, The Tomorrow War (2021) AMZN WEB-DL 1080p Latino descargar gratis, descargar The Tomorrow War (2021) AMZN WEB-DL 1080p Latino pelicula latino, The Tomorrow War (2021) AMZN WEB-DL 1080p Latino 1 link mega, The Tomorrow War (2021) AMZN WEB-DL 1080p Latino 1 link google drive, The Tomorrow War (2021) AMZN WEB-DL 1080p Latino hd 1080p latino.
Comentarios 0