×

¿Problemas para descargar con Mozilla, EDGE? Deshabilita la opción "Abrir vinculos en una pestaña nueva" tal como lo muestra ésta imagen.

The Tomorrow Man (2019) WEB-DL 1080p Latino

946 vistas

Información de The Tomorrow Man (2019) WEB-DL 1080p Latino

Datos de la película

  • Calidad: WEBDL
  • Audio: Español Latino AC3 2.0 DVD - Ingles AC3 5.1 iTunes
  • Subtitulos: Español Latino SRT- FORZADOS SRT
  • Resolución: 1916x794
  • Formato: MKV
  • Codec: H.264
  • Encoder: cinemaniahdd
  • Mediainfo: Clic para Mostrar Datos Ver
  • The Tomorrow Man (2019) WEB-DL 1080p Latino.mkv
    Format                      : Matroska
    Format version              : Version 4
    File size                   : 3.46 GiB
    Duration                    : 1 h 35 min
    Overall bit rate            : 5 199 kb/s
    Movie name                  : The Tomorrow Man (2019) - CinemaniaHDD.net
    Encoded date                : UTC 2019-09-26 00:25:47
    Writing application         : mkvmerge v35.0.0 ('All The Love In The World') 64-bit
    Writing library             : libebml v1.3.9 + libmatroska v1.5.2

    Video
    ID                          : 1
    Format                      : AVC
    Format/Info                 : Advanced Video Codec
    Format profile              : High@L4
    Format settings             : CABAC / 5 Ref Frames
    Format settings, CABAC      : Yes
    Format settings, ReFrames   : 5 frames
    Codec ID                    : V_MPEG4/ISO/AVC
    Duration                    : 1 h 35 min
    Bit rate                    : 4 557 kb/s
    Width                       : 1 916 pixels
    Height                      : 794 pixels
    Display aspect ratio        : 2.40:1
    Frame rate mode             : Constant
    Frame rate                  : 23.976 (23976/1000) FPS
    Color space                 : YUV
    Chroma subsampling          : 4:2:0
    Bit depth                   : 8 bits
    Scan type                   : Progressive
    Bits/(Pixel*Frame)          : 0.125
    Stream size                 : 3.03 GiB (88%)
    Title                       : CinemaniaHDD
    Language                    : English
    Default                     : Yes
    Forced                      : No
    Color range                 : Limited
    Color primaries             : BT.709
    Transfer characteristics    : BT.709
    Matrix coefficients         : BT.709

    Audio #1
    ID                          : 2
    Format                      : AC-3
    Format/Info                 : Audio Coding 3
    Commercial name             : Dolby Digital
    Codec ID                    : A_AC3
    Duration                    : 1 h 35 min
    Bit rate mode               : Constant
    Bit rate                    : 256 kb/s
    Channel(s)                  : 2 channels
    Channel layout              : L R
    Sampling rate               : 48.0 kHz
    Frame rate                  : 31.250 FPS (1536 SPF)
    Bit depth                   : 16 bits
    Compression mode            : Lossy
    Delay relative to video     : -42 ms
    Stream size                 : 175 MiB (5%)
    Title                       : Español latino [CinemaniaHDD]
    Language                    : Spanish
    Service kind                : Complete Main
    Default                     : Yes
    Forced                      : No

    Audio #2
    ID                          : 3
    Format                      : AC-3
    Format/Info                 : Audio Coding 3
    Commercial name             : Dolby Digital
    Codec ID                    : A_AC3
    Duration                    : 1 h 35 min
    Bit rate mode               : Constant
    Bit rate                    : 384 kb/s
    Channel(s)                  : 6 channels
    Channel layout              : L R C LFE Ls Rs
    Sampling rate               : 48.0 kHz
    Frame rate                  : 31.250 FPS (1536 SPF)
    Bit depth                   : 16 bits
    Compression mode            : Lossy
    Delay relative to video     : -42 ms
    Stream size                 : 262 MiB (7%)
    Title                       : Inglés [CinemaniaHDD]
    Language                    : English
    Service kind                : Complete Main
    Default                     : No
    Forced                      : No

    Text #1
    ID                          : 4
    Format                      : UTF-8
    Codec ID                    : S_TEXT/UTF8
    Codec ID/Info               : UTF-8 Plain Text
    Duration                    : 1 h 22 min
    Bit rate                    : 1 b/s
    Count of elements           : 33
    Stream size                 : 1 023 Bytes (0%)
    Title                       : Español latino [CinemaniaHDD]
    Language                    : Spanish
    Default                     : Yes
    Forced                      : Yes

    Text #2
    ID                          : 5
    Format                      : UTF-8
    Codec ID                    : S_TEXT/UTF8
    Codec ID/Info               : UTF-8 Plain Text
    Duration                    : 1 h 29 min
    Bit rate                    : 43 b/s
    Count of elements           : 1037
    Stream size                 : 28.8 KiB (0%)
    Title                       : Forzados [CinemaniaHDD]
    Language                    : Spanish
    Default                     : No
    Forced                      : No

    Menu
    00:00:00.000                : en:1
    00:03:38.760                : en:2
    00:08:06.819                : en:3
    00:12:01.762                : en:4
    00:18:14.633                : en:5
    00:25:12.174                : en:6
    00:29:46.697                : en:7
    00:33:44.434                : en:8
    00:38:55.620                : en:9
    00:44:49.931                : en:10
    00:50:45.327                : en:11
    00:56:43.350                : en:12
    01:00:41.004                : en:13
    01:05:27.790                : en:14
    01:10:51.530                : en:15
    01:15:50.620                : en:16
    01:20:19.721                : en:17
    01:23:18.398                : en:18
    01:27:52.630                : en:19
    01:32:15.184                : en:20

     

  • Peso: 3.46 GiB

Sinopsis

Ed Hemsler (John Lithgow) pasa la mayor parte de su vida preparándose para un desastre que puede que nunca llegue. Ronnie Meisner (Blythe Danner) gasta todo su dinero comprando objetos en tiendas que puede que nunca use. En un pequeño pueblo de los Estados Unidos, dos extraños tratan de enamorarse sin interponerse en la forma de ser y de vivir del otro.

Ficha técnica

  • Titulo original: The Tomorrow Man
  • Fecha de lanzamiento: 22-05-2019 (United States of America)
  • Director: Noble Jones
  • Género: Drama, Romance

Video trailer de la película

Enlaces de descarga

Rip de Bluray

Descargar The Tomorrow Man (2019) WEB-DL 1080p Latino




Aportes de DPeliculasHDmega la pass es:dpeliculashdmega.org Aportes de CinemaniaHD la pass es:cinemaniahdd.com
Guardado en : Drama , Romance

Películas relacionadas

descargar The Tomorrow Man (2019) WEB-DL 1080p Latino WEBDL 1080p gratis, The Tomorrow Man (2019) WEB-DL 1080p Latino WEBDL mega 1 link, The Tomorrow Man (2019) WEB-DL 1080p Latino WEBDL pelicula completa, descargar The Tomorrow Man (2019) WEB-DL 1080p Latino WEBDL gratis en mega.

The Tomorrow Man (2019) WEB-DL 1080p Latino pelicula full hd, The Tomorrow Man (2019) WEB-DL 1080p Latino mega latino, The Tomorrow Man (2019) WEB-DL 1080p Latino 4k latino, The Tomorrow Man (2019) WEB-DL 1080p Latino pelicula completa, The Tomorrow Man (2019) WEB-DL 1080p Latino descargar gratis, descargar The Tomorrow Man (2019) WEB-DL 1080p Latino pelicula latino, The Tomorrow Man (2019) WEB-DL 1080p Latino 1 link mega, The Tomorrow Man (2019) WEB-DL 1080p Latino 1 link google drive, The Tomorrow Man (2019) WEB-DL 1080p Latino hd 1080p latino.
Comentarios 0