×

¿Problemas para descargar con Mozilla, EDGE? Deshabilita la opción "Abrir vinculos en una pestaña nueva" tal como lo muestra ésta imagen.

Te amaré Por Siempre (2009) REMUX 1080p Latino

297 vistas

Información de Te amaré Por Siempre (2009) REMUX 1080p Latino

Datos de la película

  • Calidad: Full 1080p
  • Audio: Se especifica abajo de la Sinopsis
  • Subtitulos: Español Latino PGS - Ingles PGS
  • Resolución: 1920x1080p
  • Formato: MKV
  • Codec: H.264
  • Encoder: CinefiloCool
  • Mediainfo: Clic para Mostrar Datos Ver
  • Te Amaré Por Siempre (2009) REMUX 1080p Latino-CMHDD.mkv
    Format                      : Matroska
    Format version              : Version 4
    File size                   : 15.8 GiB
    Duration                    : 1 h 47 min
    Overall bit rate mode       : Variable
    Overall bit rate            : 21.1 Mb/s
    Movie name                  : The Time Traveler's Wife (2009) CinemaniaHDD.Net
    Encoded date                : UTC 2020-10-07 04:41:12
    Writing application         : mkvmerge v51.0.0 ('I Wish') 64-bit
    Writing library             : libebml v1.4.0 + libmatroska v1.6.2
    Attachments                 : CINEMANIAHD.png

    Video
    ID                          : 1
    Format                      : VC-1
    Format profile              : Advanced@L3
    Codec ID                    : V_MS/VFW/FOURCC / WVC1
    Codec ID/Hint               : Microsoft
    Duration                    : 1 h 47 min
    Bit rate                    : 17.0 Mb/s
    Width                       : 1 920 pixels
    Height                      : 1 080 pixels
    Display aspect ratio        : 16:9
    Frame rate mode             : Constant
    Frame rate                  : 23.976 (24000/1001) FPS
    Color space                 : YUV
    Chroma subsampling          : 4:2:0
    Bit depth                   : 8 bits
    Scan type                   : Progressive
    Compression mode            : Lossy
    Bits/(Pixel*Frame)          : 0.343
    Stream size                 : 12.8 GiB (81%)
    Title                       : REMUX 1080p [CinemaniaHDD]
    Default                     : Yes
    Forced                      : Yes

    Audio #1
    ID                          : 2
    Format                      : AC-3
    Format/Info                 : Audio Coding 3
    Commercial name             : Dolby Digital
    Codec ID                    : A_AC3
    Duration                    : 1 h 47 min
    Bit rate mode               : Constant
    Bit rate                    : 256 kb/s
    Channel(s)                  : 2 channels
    Channel layout              : L R
    Sampling rate               : 48.0 kHz
    Frame rate                  : 31.250 FPS (1536 SPF)
    Compression mode            : Lossy
    Stream size                 : 197 MiB (1%)
    Title                       : Español Latino ORG NLC [CinemaniaHDD]
    Language                    : Spanish
    Service kind                : Complete Main
    Default                     : Yes
    Forced                      : Yes

    Audio #2
    ID                          : 3
    Format                      : DTS XLL
    Format/Info                 : Digital Theater Systems
    Commercial name             : DTS-HD Master Audio
    Codec ID                    : A_DTS
    Duration                    : 1 h 47 min
    Bit rate mode               : Variable
    Bit rate                    : 3 539 kb/s
    Channel(s)                  : 6 channels
    Channel layout              : C L R Ls Rs LFE
    Sampling rate               : 48.0 kHz
    Frame rate                  : 93.750 FPS (512 SPF)
    Bit depth                   : 24 bits
    Compression mode            : Lossless
    Stream size                 : 2.66 GiB (17%)
    Title                       : Ingles [CinemaniaHDD]
    Language                    : English
    Default                     : No
    Forced                      : No

    Audio #3
    ID                          : 4
    Format                      : AC-3
    Format/Info                 : Audio Coding 3
    Commercial name             : Dolby Digital
    Codec ID                    : A_AC3
    Duration                    : 1 h 47 min
    Bit rate mode               : Constant
    Bit rate                    : 256 kb/s
    Channel(s)                  : 2 channels
    Channel layout              : L R
    Sampling rate               : 48.0 kHz
    Frame rate                  : 31.250 FPS (1536 SPF)
    Compression mode            : Lossy
    Stream size                 : 197 MiB (1%)
    Title                       : Español Latino REDUB VM [CinemaniaHDD]
    Language                    : Spanish
    Service kind                : Complete Main
    Default                     : No
    Forced                      : No

    Text #1
    ID                          : 5
    Format                      : PGS
    Muxing mode                 : zlib
    Codec ID                    : S_HDMV/PGS
    Codec ID/Info               : Picture based subtitle format used on BDs/HD-DVDs
    Duration                    : 1 h 46 min
    Bit rate                    : 19.4 kb/s
    Count of elements           : 1924
    Stream size                 : 14.8 MiB (0%)
    Title                       : Español-PGS [CinemaniaHDD]
    Language                    : Spanish
    Default                     : No
    Forced                      : No

    Text #2
    ID                          : 6
    Format                      : PGS
    Muxing mode                 : zlib
    Codec ID                    : S_HDMV/PGS
    Codec ID/Info               : Picture based subtitle format used on BDs/HD-DVDs
    Duration                    : 1 h 47 min
    Bit rate                    : 24.4 kb/s
    Count of elements           : 2188
    Stream size                 : 18.7 MiB (0%)
    Title                       : Ingles-PGS [CinemaniaHDD]
    Language                    : English
    Default                     : No
    Forced                      : No

    Text #3
    ID                          : 7
    Format                      : UTF-8
    Codec ID                    : S_TEXT/UTF8
    Codec ID/Info               : UTF-8 Plain Text
    Duration                    : 1 h 46 min
    Bit rate                    : 0 b/s
    Count of elements           : 5
    Stream size                 : 90.0 Bytes (0%)
    Title                       : Forzados-SRT [CinemaniaHDD]
    Language                    : Spanish
    Default                     : Yes
    Forced                      : Yes

    Text #4
    ID                          : 8
    Format                      : UTF-8
    Codec ID                    : S_TEXT/UTF8
    Codec ID/Info               : UTF-8 Plain Text
    Duration                    : 1 h 46 min
    Bit rate                    : 36 b/s
    Count of elements           : 961
    Stream size                 : 28.4 KiB (0%)
    Title                       : Español-SRT [CinemaniaHDD]
    Language                    : Spanish
    Default                     : No
    Forced                      : No

    Menu
    00:00:00.000                : en:Chapter 00
    00:05:11.144                : en:Chapter 01
    00:09:06.254                : en:Chapter 02
    00:13:23.469                : en:Chapter 03
    00:18:51.922                : en:Chapter 04
    00:23:13.475                : en:Chapter 05
    00:27:26.895                : en:Chapter 06
    00:29:57.962                : en:Chapter 07
    00:33:27.380                : en:Chapter 08
    00:35:27.291                : en:Chapter 09
    00:39:53.432                : en:Chapter 10
    00:43:51.211                : en:Chapter 11
    00:47:22.005                : en:Chapter 12
    00:49:54.241                : en:Chapter 13
    00:54:17.754                : en:Chapter 14
    00:57:06.256                : en:Chapter 15
    01:02:46.137                : en:Chapter 16
    01:08:03.621                : en:Chapter 17
    01:12:50.741                : en:Chapter 18
    01:16:26.832                : en:Chapter 19
    01:19:55.457                : en:Chapter 20
    01:23:23.289                : en:Chapter 21
    01:26:45.450                : en:Chapter 22
    01:32:47.144                : en:Chapter 23
    01:34:34.835                : en:Chapter 24
    01:39:15.199                : en:Chapter 25

  • Peso: 15.8 GiB

Sinopsis

Descargar Te amaré Por Siempre (2009) REMUX 1080p Latino. Clare (Rachel McAdams) ha estado siempre enamorada de Henry (Eric Bana), un bibliotecario de Chicago. Está convencida de que están destinados a vivir juntos, aunque no sepa cuándo tendrán que volver a separarse: Henry es un viajero del tiempo, con una rara anomalía genética que lo condena a vivir su vida en una escala de tiempo cambiante, avanzando y retrocediendo a través de los años sin ningún control. A pesar de que los viajes de Henry son tan imprevisibles que Clare nunca sabe cuándo volverán a verse, intenta desesperadamente adaptarse a esa vida, pues lo que sí sabe es que no podría vivir sin Henry.

Audio Español Latino AC3 2.0 Doblaje 1 [New Line Cinema] + AC3 2.0 Doblaje 2 [Videomax] – Ingles DTS-HD 5.1 Bluray

Ficha técnica

Video trailer de la película

Enlaces de descarga

Rip de Bluray

Descargar Te amaré Por Siempre (2009) REMUX 1080p Latino




Aportes de DPeliculasHDmega la pass es:dpeliculashdmega.org Aportes de CinemaniaHD la pass es:cinemaniahdd.com
Guardado en : Drama , Fantasía , Remux , Romance

Películas relacionadas

  • Jaula Mental (2022) HD 1080p Latino

    Jaula Mental (2022) HD 1080p Latino

    2022
    Jaula Mental (2022) HD 1080p Latino

    1h 47m 2022

    Descargar Jaula Mental (2022) HD 1080p Latino. Cuando un asesino que imita otros crímenes comienza a...

    Director: Mauro Borrelli

    Género: Crimen

    Actores: Victoria Fox

  • Jaula Mental (2022) PLACEBO Full HD 1080p Latino

    Jaula Mental (2022) PLACEBO Full HD 1080p Latino

    2022
    Jaula Mental (2022) PLACEBO Full HD 1080p Latino

    1h 47m 2022

    Descargar Jaula Mental (2022) PLACEBO Full HD 1080p Latino. Cuando un asesino que imita otros crímenes...

    Director: Mauro Borrelli

    Género: Crimen

    Actores: Victoria Fox

  • Jaula Mental (2022) REMUX 1080p Latino

    Jaula Mental (2022) REMUX 1080p Latino

    2022
    Jaula Mental (2022) REMUX 1080p Latino

    1h 47m 2022

    Descargar Jaula Mental (2022) REMUX 1080p Latino. Cuando un asesino que imita otros crímenes comienza...

    Director: Mauro Borrelli

    Género: Crimen

    Actores: Victoria Fox

  • Transfusion (2023) HD 1080p Latino

    Transfusion (2023) HD 1080p Latino

    2023
    Transfusion (2023) HD 1080p Latino

    1h 45m 2023

    Descargar Transfusion (2023) HD 1080p Latino. Un antiguo agente de las Fuerzas Especiales se ve empujado...

    Director: Matt Nable

    Género: Crimen

    Actores: Trystan Go

  • Transfusion (2023) PLACEBO Full HD 1080p Latino

    Transfusion (2023) PLACEBO Full HD 1080p Latino

    2023
    Transfusion (2023) PLACEBO Full HD 1080p Latino

    1h 45m 2023

    Descargar Transfusion (2023) PLACEBO Full HD 1080p Latino. Un antiguo agente de las Fuerzas Especiales...

    Director: Matt Nable

    Género: Crimen

    Actores: Trystan Go

descargar Te amaré Por Siempre (2009) REMUX 1080p Latino Full 1080p 1080p gratis, Te amaré Por Siempre (2009) REMUX 1080p Latino Full 1080p mega 1 link, Te amaré Por Siempre (2009) REMUX 1080p Latino Full 1080p pelicula completa, descargar Te amaré Por Siempre (2009) REMUX 1080p Latino Full 1080p gratis en mega.

Te amaré Por Siempre (2009) REMUX 1080p Latino pelicula full hd, Te amaré Por Siempre (2009) REMUX 1080p Latino mega latino, Te amaré Por Siempre (2009) REMUX 1080p Latino 4k latino, Te amaré Por Siempre (2009) REMUX 1080p Latino pelicula completa, Te amaré Por Siempre (2009) REMUX 1080p Latino descargar gratis, descargar Te amaré Por Siempre (2009) REMUX 1080p Latino pelicula latino, Te amaré Por Siempre (2009) REMUX 1080p Latino 1 link mega, Te amaré Por Siempre (2009) REMUX 1080p Latino 1 link google drive, Te amaré Por Siempre (2009) REMUX 1080p Latino hd 1080p latino.
Comentarios 0