The Time of Their Lives (2017) WEBDL 1080p Latino

521 vistas
1 estrella2 estrellas3 estrellas4 estrellas5 estrellas (Ninguna valoración todavía)
Cargando…

Información de The Time of Their Lives (2017) WEBDL 1080p Latino

Datos de la película

  • Calidad: WEBDL
  • Audio: Español Latino AC3 5.1 iTunes - Ingles AC3 5.1 iTunes
  • Subtitulos: Español Latino SRT
  • Resolución: 1916x1032p
  • Formato: MKV
  • Codec: H.264
  • Encoder: Dpelis
  • Mediainfo: Clic para Mostrar Datos Ver
  • The Time of Their Lives (2017) WEBDL 1080p Latino.mkv
    Format                      : Matroska
    Format version              : Version 4 / Version 2
    File size                   : 4.34 GiB
    Duration                    : 1 h 44 min
    Overall bit rate            : 5 957 kb/s
    Movie name                  : DPeliculasHDMega.ORG
    Encoded date                : UTC 2017-10-10 01:58:44
    Writing application         : mkvmerge v10.0.0 ('To Drown In You') 64bit
    Writing library             : libebml v1.3.4 + libmatroska v1.4.5

    Video
    ID                          : 1
    Format                      : AVC
    Format/Info                 : Advanced Video Codec
    Format profile              : [email protected]
    Format settings, CABAC      : Yes
    Format settings, RefFrames  : 4 frames
    Codec ID                    : V_MPEG4/ISO/AVC
    Duration                    : 1 h 44 min
    Bit rate                    : 5 188 kb/s
    Width                       : 1 916 pixels
    Height                      : 1 032 pixels
    Display aspect ratio        : 1.85:1
    Frame rate mode             : Constant
    Frame rate                  : 23.976 FPS
    Color space                 : YUV
    Chroma subsampling          : 4:2:0
    Bit depth                   : 8 bits
    Scan type                   : Progressive
    Bits/(Pixel*Frame)          : 0.109
    Stream size                 : 3.78 GiB (87%)
    Language                    : English
    Default                     : Yes
    Forced                      : No
    Color range                 : Limited
    Color primaries             : BT.709
    Transfer characteristics    : BT.709
    Matrix coefficients         : BT.709

    Audio #1
    ID                          : 2
    Format                      : AC-3
    Format/Info                 : Audio Coding 3
    Format settings, Endianness : Big
    Codec ID                    : A_AC3
    Duration                    : 1 h 44 min
    Bit rate mode               : Constant
    Bit rate                    : 384 kb/s
    Channel(s)                  : 6 channels
    Channel positions           : Front: L C R, Side: L R, LFE
    Sampling rate               : 48.0 kHz
    Frame rate                  : 31.250 FPS (1536 SPF)
    Bit depth                   : 16 bits
    Compression mode            : Lossy
    Stream size                 : 286 MiB (6%)
    Language                    : Spanish
    Service kind                : Complete Main
    Default                     : Yes
    Forced                      : No

    Audio #2
    ID                          : 3
    Format                      : AC-3
    Format/Info                 : Audio Coding 3
    Format settings, Endianness : Big
    Codec ID                    : A_AC3
    Duration                    : 1 h 44 min
    Bit rate mode               : Constant
    Bit rate                    : 384 kb/s
    Channel(s)                  : 6 channels
    Channel positions           : Front: L C R, Side: L R, LFE
    Sampling rate               : 48.0 kHz
    Frame rate                  : 31.250 FPS (1536 SPF)
    Bit depth                   : 16 bits
    Compression mode            : Lossy
    Stream size                 : 286 MiB (6%)
    Language                    : English
    Service kind                : Complete Main
    Default                     : No
    Forced                      : No

    Text #1
    ID                          : 4
    Format                      : UTF-8
    Codec ID                    : S_TEXT/UTF8
    Codec ID/Info               : UTF-8 Plain Text
    Duration                    : 1 h 19 min
    Bit rate                    : 2 b/s
    Count of elements           : 39
    Stream size                 : 1.37 KiB (0%)
    Language                    : Spanish
    Default                     : Yes
    Forced                      : No

    Text #2
    ID                          : 5
    Format                      : UTF-8
    Codec ID                    : S_TEXT/UTF8
    Codec ID/Info               : UTF-8 Plain Text
    Duration                    : 1 h 41 min
    Bit rate                    : 44 b/s
    Count of elements           : 986
    Stream size                 : 32.7 KiB (0%)
    Language                    : Spanish
    Default                     : No
    Forced                      : No

    Menu
    00:00:00.000                : en:1
    00:08:37.183                : en:2
    00:16:06.924                : en:3
    00:24:47.069                : en:4
    00:34:11.632                : en:5
    00:41:42.081                : en:6
    00:50:02.039                : en:7
    00:57:30.779                : en:8
    01:05:59.788                : en:9
    01:14:41.726                : en:10
    01:22:43.206                : en:11
    01:29:14.221                : en:12
    01:39:05.645                : en:13

  • Peso: 4.34 GB

Sinopsis

Helen se escapa de su casa de retiro en Londres con la ayuda de la reprimida ama de casa inglesa Priscilla y ellos salen a la carretera juntos en una carrera para llegar al funeral a tiempo.

Ficha técnica

  • Titulo original: The Time of Their Lives
  • Fecha de lanzamiento: 10-03-2017 (United Kingdom)
  • Director: Caroline O'Reilly, Roger Goldby
  • Género: Comedia
  • Puntuación: 0.0 0 votos
  • Duración:
    1h 44m

Video trailer de la película

Enlaces de descarga

Rip de Bluray

Descargar The Time of Their Lives (2017) WEBDL 1080p Latino




Aportes de DPeliculasHDmega la pass es:dpeliculashdmega.org Aportes de CinemaniaHD la pass es:cinemaniahdd.com
Guardado en : Comedia

Películas relacionadas

Comentarios 0