×

¿Problemas para descargar con Mozilla, EDGE? Deshabilita la opción "Abrir vinculos en una pestaña nueva" tal como lo muestra ésta imagen.

The Tiger’s Apprentice (2024) AMZN WEB-DL 1080p Latino

73 vistas

Información de The Tiger’s Apprentice (2024) AMZN WEB-DL 1080p Latino

Datos de la película

  • Calidad: 1080p
  • Audio: Español Latino AC3 2.0 WEB-DL - Ingles AC3 5.1 WEB-DL
  • Subtitulos: Español Latino SRT- FORZADOS SRT
  • Resolución: 1920x1080
  • Formato: MKV
  • Codec: H.264
  • Encoder: cinemaniahdd
  • Mediainfo: Clic para Mostrar Datos Ver
  • The Tigers Apprentice (2024) AMZN WEB-DL 1080p Latino [CNMNHDD].mkv
    Format                      : Matroska
    Format version              : Version 4
    File size                   : 3.63 GiB
    Duration                    : 1 h 24 min
    Overall bit rate            : 6 165 kb/s
    Movie name                  : The Tigers Apprentice (2024) [1080p] - CinemaniaHDD.Net
    Encoded date                : UTC 2024-02-06 02:58:09
    Writing application         : mkvmerge v56.1.0 ('My Friend') 64-bit
    Writing library             : libebml v1.4.2 + libmatroska v1.6.4

    Video
    ID                          : 1
    Format                      : AVC
    Format/Info                 : Advanced Video Codec
    Format profile              : High@L4
    Format settings             : CABAC / 4 Ref Frames
    Format settings, CABAC      : Yes
    Format settings, Reference  : 4 frames
    Codec ID                    : V_MPEG4/ISO/AVC
    Duration                    : 1 h 23 min
    Bit rate mode               : Constant
    Bit rate                    : 5 413 kb/s
    Nominal bit rate            : 10 000 kb/s
    Width                       : 1 920 pixels
    Height                      : 800 pixels
    Display aspect ratio        : 2.40:1
    Frame rate mode             : Constant
    Frame rate                  : 23.976 (24000/1001) FPS
    Color space                 : YUV
    Chroma subsampling          : 4:2:0
    Bit depth                   : 8 bits
    Scan type                   : Progressive
    Bits/(Pixel*Frame)          : 0.147
    Stream size                 : 3.17 GiB (88%)
    Title                       : CinemaniaHDD
    Default                     : Yes
    Forced                      : No
    Color range                 : Limited
    Color primaries             : BT.709
    Transfer characteristics    : BT.709
    Matrix coefficients         : BT.709

    Audio #1
    ID                          : 2
    Format                      : AAC LC
    Format/Info                 : Advanced Audio Codec Low Complexity
    Codec ID                    : A_AAC-2
    Duration                    : 1 h 24 min
    Bit rate                    : 132 kb/s
    Channel(s)                  : 2 channels
    Channel layout              : L R
    Sampling rate               : 48.0 kHz
    Frame rate                  : 46.875 FPS (1024 SPF)
    Compression mode            : Lossy
    Stream size                 : 78.2 MiB (2%)
    Title                       : Español Latino [CinemaniaHDD]
    Language                    : Spanish
    Default                     : Yes
    Forced                      : No

    Audio #2
    ID                          : 3
    Format                      : E-AC-3
    Format/Info                 : Enhanced AC-3
    Commercial name             : Dolby Digital Plus
    Codec ID                    : A_EAC3
    Duration                    : 1 h 23 min
    Bit rate mode               : Constant
    Bit rate                    : 640 kb/s
    Channel(s)                  : 6 channels
    Channel layout              : L R C LFE Ls Rs
    Sampling rate               : 48.0 kHz
    Frame rate                  : 31.250 FPS (1536 SPF)
    Compression mode            : Lossy
    Stream size                 : 384 MiB (10%)
    Title                       : Inglés [CinemaniaHDD]
    Language                    : English
    Service kind                : Complete Main
    Default                     : No
    Forced                      : No

    Text #1
    ID                          : 4
    Format                      : UTF-8
    Codec ID                    : S_TEXT/UTF8
    Codec ID/Info               : UTF-8 Plain Text
    Duration                    : 1 h 23 min
    Bit rate                    : 0 b/s
    Count of elements           : 4
    Stream size                 : 89.0 Bytes (0%)
    Title                       : Forzados [CinemaniaHDD]
    Language                    : Spanish
    Default                     : Yes
    Forced                      : Yes

    Text #2
    ID                          : 5
    Format                      : UTF-8
    Codec ID                    : S_TEXT/UTF8
    Codec ID/Info               : UTF-8 Plain Text
    Duration                    : 1 h 23 min
    Bit rate                    : 47 b/s
    Count of elements           : 1056
    Stream size                 : 28.7 KiB (0%)
    Title                       : Español Latino [CinemaniaHDD]
    Language                    : Spanish
    Default                     : No
    Forced                      : No

    Text #3
    ID                          : 6
    Format                      : UTF-8
    Codec ID                    : S_TEXT/UTF8
    Codec ID/Info               : UTF-8 Plain Text
    Duration                    : 1 h 16 min
    Bit rate                    : 60 b/s
    Count of elements           : 1243
    Stream size                 : 33.7 KiB (0%)
    Title                       : Inglés [CinemaniaHDD]
    Language                    : English
    Default                     : No
    Forced                      : No

     

  • Peso: 3.63 GiB

Sinopsis

Película de animación que adapta la serie de novelas de fantasía tituladas The Tiger’s Apprentice, del escritor Laurence Yep. La historia sigue a un niño que se convierte en el aprendiz mágico del Sr. Hu, un tigre que habla y que es el último de una larga lista de guardianes, cuyo trabajo es proteger al antiguo Fénix de Vatten de aquellos malhechores que desean usar sus poderes para hacer el mal. En su tarea descubrirán la importancia de la lealtad, el deber y la valentía.

Ficha técnica

Video trailer de la película

Enlaces de descarga

Rip de Bluray

Descargar The Tiger’s Apprentice (2024) AMZN WEB-DL 1080p Latino




Aportes de DPeliculasHDmega la pass es:dpeliculashdmega.org Aportes de CinemaniaHD la pass es:cinemaniahdd.com Aportes recientes:cinemaniahdd.net

Películas relacionadas

descargar The Tiger’s Apprentice (2024) AMZN WEB-DL 1080p Latino 1080p 1080p gratis, The Tiger’s Apprentice (2024) AMZN WEB-DL 1080p Latino 1080p mega 1 link, The Tiger’s Apprentice (2024) AMZN WEB-DL 1080p Latino 1080p pelicula completa, descargar The Tiger’s Apprentice (2024) AMZN WEB-DL 1080p Latino 1080p gratis en mega.

The Tiger’s Apprentice (2024) AMZN WEB-DL 1080p Latino pelicula full hd, The Tiger’s Apprentice (2024) AMZN WEB-DL 1080p Latino mega latino, The Tiger’s Apprentice (2024) AMZN WEB-DL 1080p Latino 4k latino, The Tiger’s Apprentice (2024) AMZN WEB-DL 1080p Latino pelicula completa, The Tiger’s Apprentice (2024) AMZN WEB-DL 1080p Latino descargar gratis, descargar The Tiger’s Apprentice (2024) AMZN WEB-DL 1080p Latino pelicula latino, The Tiger’s Apprentice (2024) AMZN WEB-DL 1080p Latino 1 link mega, The Tiger’s Apprentice (2024) AMZN WEB-DL 1080p Latino 1 link google drive, The Tiger’s Apprentice (2024) AMZN WEB-DL 1080p Latino hd 1080p latino.
Comentarios 0