The Three Stooges (2012) REMUX 1080p Latino – CMHDD

32 vistas
1 estrella2 estrellas3 estrellas4 estrellas5 estrellas (Ninguna valoración todavía)
Cargando...

Información de The Three Stooges (2012) REMUX 1080p Latino – CMHDD

Datos de la película

  • Calidad: Full 1080p
  • Audio: Español Latino AC3 5.1 BLURAY - Ingles DTS 5.1 BLURAY
  • Subtitulos: Español Latino PGS
  • Resolución: 1920x1080p
  • Formato: MKV
  • Codec: H.264
  • Encoder: Dracarys
  • Mediainfo: Clic para Mostrar Datos Ver
  • Format                      : Matroska
    Format version              : Version 4
    File size                   : 19.2 GiB
    Duration                    : 1 h 32 min
    Overall bit rate mode       : Variable
    Overall bit rate            : 29.8 Mb/s
    Movie name                  :  / The Three Stooges (2012) REMUX 1080p Latino - CMHDD
    Encoded date                : UTC 2021-10-13 23:46:14
    Writing application         : mkvmerge v17.0.0 ('Be Ur Friend') 64-bit
    Writing library             : libebml v1.3.5 + libmatroska v1.4.8

    Video
    ID                          : 1
    Format                      : AVC
    Format/Info                 : Advanced Video Codec
    Format profile              : High@L4.1
    Format settings             : CABAC / 2 Ref Frames
    Format settings, CABAC      : Yes
    Format settings, Reference  : 2 frames
    Codec ID                    : V_MPEG4/ISO/AVC
    Duration                    : 1 h 32 min
    Bit rate mode               : Variable
    Bit rate                    : 25.8 Mb/s
    Width                       : 1 920 pixels
    Height                      : 1 080 pixels
    Display aspect ratio        : 16:9
    Frame rate mode             : Constant
    Frame rate                  : 23.976 (24000/1001) FPS
    Color space                 : YUV
    Chroma subsampling          : 4:2:0
    Bit depth                   : 8 bits
    Scan type                   : Progressive
    Bits/(Pixel*Frame)          : 0.519
    Stream size                 : 16.6 GiB (87%)
    Default                     : Yes
    Forced                      : No

    Audio #1
    ID                          : 2
    Format                      : DTS XLL
    Format/Info                 : Digital Theater Systems
    Commercial name             : DTS-HD Master Audio
    Codec ID                    : A_DTS
    Duration                    : 1 h 32 min
    Bit rate mode               : Variable
    Bit rate                    : 3 529 kb/s
    Channel(s)                  : 6 channels
    Channel layout              : C L R Ls Rs LFE
    Sampling rate               : 48.0 kHz
    Frame rate                  : 93.750 FPS (512 SPF)
    Bit depth                   : 24 bits
    Compression mode            : Lossless
    Stream size                 : 2.27 GiB (12%)
    Language                    : English
    Default                     : No
    Forced                      : No

    Audio #2
    ID                          : 3
    Format                      : AC-3
    Format/Info                 : Audio Coding 3
    Commercial name             : Dolby Digital
    Codec ID                    : A_AC3
    Duration                    : 1 h 32 min
    Bit rate mode               : Constant
    Bit rate                    : 448 kb/s
    Channel(s)                  : 6 channels
    Channel layout              : L R C LFE Ls Rs
    Sampling rate               : 48.0 kHz
    Frame rate                  : 31.250 FPS (1536 SPF)
    Compression mode            : Lossy
    Stream size                 : 295 MiB (2%)
    Language                    : Spanish
    Service kind                : Complete Main
    Default                     : Yes
    Forced                      : No

    Text
    ID                          : 4
    Format                      : PGS
    Muxing mode                 : zlib
    Codec ID                    : S_HDMV/PGS
    Codec ID/Info               : Picture based subtitle format used on BDs/HD-DVDs
    Duration                    : 1 h 31 min
    Bit rate                    : 45.2 kb/s
    Count of elements           : 2928
    Stream size                 : 29.6 MiB (0%)
    Language                    : Spanish
    Default                     : No
    Forced                      : No

    Menu
    00:00:00.000                : en:Chapter 1
    00:02:58.219                : en:Chapter 2
    00:05:55.146                : en:Chapter 3
    00:11:52.837                : en:Chapter 4
    00:14:58.272                : en:Chapter 5
    00:17:11.447                : en:Chapter 6
    00:20:08.332                : en:Chapter 7
    00:23:23.193                : en:Chapter 8
    00:25:56.346                : en:Chapter 9
    00:34:39.619                : en:Chapter 10
    00:39:31.827                : en:Chapter 11
    00:43:33.485                : en:Chapter 12
    00:47:13.330                : en:Chapter 13
    00:50:10.257                : en:Chapter 14
    00:53:45.722                : en:Chapter 15
    00:57:48.173                : en:Chapter 16
    01:00:19.532                : en:Chapter 17
    01:04:39.333                : en:Chapter 18
    01:09:12.148                : en:Chapter 19
    01:14:28.338                : en:Chapter 20
    01:16:54.735                : en:Chapter 21
    01:20:13.391                : en:Chapter 22
    01:25:32.836                : en:Chapter 23
    01:26:19.090                : en:Chapter 24

  • Peso: 19.2 GiB

Sinopsis

Es inspirada en la serie de 190 cortos, de unos 16 minutos, ‘The Three Stooges’ que estrenó Columbia Pictures entre 1934 y 1958. Los protagonistas son tres recién nacidos que viven en un orfanato.

Ficha técnica

Video trailer de la película

Enlaces de descarga

Rip de Bluray

Descargar The Three Stooges (2012) REMUX 1080p Latino – CMHDD


Aportes de DPeliculasHDmega la pass es:dpeliculashdmega.org Aportes de CinemaniaHD la pass es:cinemaniahdd.com
Guardado en : Comedia

Películas relacionadas

  • Afuera Del Tiempo (2019) AMZN WEB-DL 1080p Latino

    Afuera Del Tiempo (2019) AMZN WEB-DL 1080p Latino

    2019
    Afuera Del Tiempo (2019) AMZN WEB-DL 1080p Latino

    0.0 1h 21m 2019

    Ricardo siempre le ha terminado a todas sus novias, pero una se le adelanta justo, cuando él le propone...

    Director: Marco Vélez Esquivia

    Género: Ciencia ficción

    Actores: Walter Luengas

  • Chucky (2021) Temporada 1 WEB-DL 1080p latino

    Chucky (2021) Temporada 1 WEB-DL 1080p latino

    2021
    Chucky (2021) Temporada 1 WEB-DL 1080p latino

    4.5 0h 46m 2021

    Después de que un muñeco vintage de Chucky aparece en una venta de patio suburbana, una ciudad...

    Director: Nick Antosca

    Género: Comedia

    Actores: Zackary Arthur

  • Mi vida a los diecisiete (2016) REMUX 1080p Latino

    Mi vida a los diecisiete (2016) REMUX 1080p Latino

    2016
    Mi vida a los diecisiete (2016) REMUX 1080p Latino

    0.0 1h 45m 2016

    Descargar Mi vida a los diecisiete (2016) REMUX 1080p Latino. Todo el mundo sabe que crecer es difícil,...

    Director: Kelly Fremon Craig

    Género: Comedia

    Actores: Woody Harrelson

  • Lady Bird (2017) REMUX 1080p Latino

    Lady Bird (2017) REMUX 1080p Latino

    2017
    Lady Bird (2017) REMUX 1080p Latino

    0.0 1h 34m 2017

    Descargar Lady Bird (2017) REMUX 1080p Latino. Una joven estudiante que se hace llamar Lady Bird (Saoirse...

    Director: Jonas Spaccarotelli

    Género: Comedia

    Actores: Tracy Letts

The Three Stooges (2012) REMUX 1080p Latino – CMHDD pelicula full hd, The Three Stooges (2012) REMUX 1080p Latino – CMHDD mega latino, The Three Stooges (2012) REMUX 1080p Latino – CMHDD 4k latino, The Three Stooges (2012) REMUX 1080p Latino – CMHDD pelicula completa, The Three Stooges (2012) REMUX 1080p Latino – CMHDD descargar gratis, descargar The Three Stooges (2012) REMUX 1080p Latino – CMHDD pelicula latino, The Three Stooges (2012) REMUX 1080p Latino – CMHDD 1 link mega, The Three Stooges (2012) REMUX 1080p Latino – CMHDD 1 link google drive, The Three Stooges (2012) REMUX 1080p Latino – CMHDD hd 1080p latino.