×

¿Problemas para descargar con Mozilla, EDGE? Deshabilita la opción "Abrir vinculos en una pestaña nueva" tal como lo muestra ésta imagen.

The Thing (1982) REMUX 4K HDR Latino – CMHDD

305 vistas

Información de The Thing (1982) REMUX 4K HDR Latino – CMHDD

Datos de la película

  • Calidad: 4K HDR
  • Audio: Español Latino DTS 5.1 BLURAY - Ingles DTS-HD Master 7.1 BLURAY
  • Subtitulos: Español Latino PGS
  • Resolución: 3840x2160p
  • Formato: MKV
  • Codec: H.264
  • Encoder: Dracarys
  • Mediainfo: Clic para Mostrar Datos Ver
  • Format                      : Matroska
    Format version              : Version 4
    File size                   : 70.5 GiB
    Duration                    : 1 h 48 min
    Overall bit rate mode       : Variable
    Overall bit rate            : 93.0 Mb/s
    Movie name                  : The Thing (1982) REMUX 4K HDR Latino - CMHDD
    Encoded date                : UTC 2021-09-08 21:39:17
    Writing application         : mkvmerge v17.0.0 ('Be Ur Friend') 64-bit
    Writing library             : libebml v1.3.5 + libmatroska v1.4.8

    Video
    ID                          : 1
    Format                      : HEVC
    Format/Info                 : High Efficiency Video Coding
    Format profile              : Main 10@L5.1@High
    HDR format                  : SMPTE ST 2086, HDR10 compatible
    Codec ID                    : V_MPEGH/ISO/HEVC
    Duration                    : 1 h 48 min
    Bit rate                    : 85.5 Mb/s
    Width                       : 3 840 pixels
    Height                      : 2 160 pixels
    Display aspect ratio        : 16:9
    Frame rate mode             : Constant
    Frame rate                  : 23.976 (24000/1001) FPS
    Color space                 : YUV
    Chroma subsampling          : 4:2:0 (Type 2)
    Bit depth                   : 10 bits
    Bits/(Pixel*Frame)          : 0.430
    Stream size                 : 64.8 GiB (92%)
    Default                     : Yes
    Forced                      : No
    Color range                 : Limited
    Color primaries             : BT.2020
    Transfer characteristics    : PQ
    Matrix coefficients         : BT.2020 non-constant
    Mastering display color pri : Display P3
    Mastering display luminance : min: 0.0050 cd/m2, max: 1000 cd/m2
    Maximum Content Light Level : 1000 cd/m2
    Maximum Frame-Average Light : 323 cd/m2

    Audio #1
    ID                          : 2
    Format                      : DTS XLL X
    Format/Info                 : Digital Theater Systems
    Commercial name             : DTS-HD Master Audio
    Codec ID                    : A_DTS
    Duration                    : 1 h 48 min
    Bit rate mode               : Variable
    Bit rate                    : 6 697 kb/s
    Channel(s)                  : 8 channels
    Channel(s)_Original         : Object Based
    ChannelLayout_Original      : Object Based
    Sampling rate               : 48.0 kHz
    Frame rate                  : 93.750 FPS (512 SPF)
    Bit depth                   : 24 bits
    Stream size                 : 5.08 GiB (7%)
    Language                    : English
    Default                     : No
    Forced                      : No

    Audio #2
    ID                          : 3
    Format                      : DTS
    Format/Info                 : Digital Theater Systems
    Codec ID                    : A_DTS
    Duration                    : 1 h 48 min
    Bit rate mode               : Constant
    Bit rate                    : 768 kb/s
    Channel(s)                  : 2 channels
    Channel layout              : L R
    Sampling rate               : 48.0 kHz
    Frame rate                  : 93.750 FPS (512 SPF)
    Bit depth                   : 24 bits
    Compression mode            : Lossy
    Stream size                 : 596 MiB (1%)
    Language                    : Spanish
    Default                     : Yes
    Forced                      : No

    Text #1
    ID                          : 4
    Format                      : PGS
    Muxing mode                 : zlib
    Codec ID                    : S_HDMV/PGS
    Codec ID/Info               : Picture based subtitle format used on BDs/HD-DVDs
    Duration                    : 1 h 39 min
    Bit rate                    : 20.1 kb/s
    Count of elements           : 1304
    Stream size                 : 14.3 MiB (0%)
    Language                    : Spanish
    Default                     : No
    Forced                      : No

    Text #2
    ID                          : 5
    Format                      : PGS
    Muxing mode                 : zlib
    Codec ID                    : S_HDMV/PGS
    Codec ID/Info               : Picture based subtitle format used on BDs/HD-DVDs
    Duration                    : 25 min 8 s
    Bit rate                    : 269 b/s
    Count of elements           : 4
    Stream size                 : 49.6 KiB (0%)
    Language                    : Spanish
    Default                     : Yes
    Forced                      : No

    Menu
    00:00:00.000                : en:Chapter 1
    00:02:06.793                : en:Chapter 2
    00:04:33.898                : en:Chapter 3
    00:07:01.879                : en:Chapter 4
    00:10:23.247                : en:Chapter 5
    00:14:21.986                : en:Chapter 6
    00:15:48.280                : en:Chapter 7
    00:22:13.332                : en:Chapter 8
    00:24:49.446                : en:Chapter 9
    00:27:00.619                : en:Chapter 10
    00:30:12.811                : en:Chapter 11
    00:33:02.480                : en:Chapter 12
    00:34:14.719                : en:Chapter 13
    00:36:02.410                : en:Chapter 14
    00:37:21.656                : en:Chapter 15
    00:40:04.443                : en:Chapter 16
    00:41:43.626                : en:Chapter 17
    00:45:31.311                : en:Chapter 18
    00:46:30.746                : en:Chapter 19
    00:50:17.222                : en:Chapter 20
    00:54:43.196                : en:Chapter 21
    00:57:35.410                : en:Chapter 22
    00:59:07.835                : en:Chapter 23
    01:02:46.387                : en:Chapter 24
    01:05:27.381                : en:Chapter 25
    01:09:50.978                : en:Chapter 26
    01:14:22.666                : en:Chapter 27
    01:17:42.741                : en:Chapter 28
    01:18:43.802                : en:Chapter 29
    01:25:17.612                : en:Chapter 30
    01:26:40.236                : en:Chapter 31
    01:29:18.186                : en:Chapter 32
    01:31:13.968                : en:Chapter 33
    01:34:24.700                : en:Chapter 34
    01:37:18.332                : en:Chapter 35
    01:39:13.447                : en:Chapter 36
    01:42:08.413                : en:Chapter 37

  • Peso: 70.5 GiB

Sinopsis

En una estación experimental de la Antártida, un equipo de investigadores descubre a un ente extraño venido del espacio, que según todos los indicios ha permanecido enterrado en la nieve durante más de 100.000 años. Al descongelarse, experimenta una metamorfosis sorprendente…

Ficha técnica

Video trailer de la película

Enlaces de descarga

Rip de Bluray

Descargar The Thing (1982) REMUX 4K HDR Latino – CMHDD


Aportes de DPeliculasHDmega la pass es:dpeliculashdmega.org Aportes de CinemaniaHD la pass es:cinemaniahdd.com
Guardado en : Ciencia ficción , Misterio , Terror

Películas relacionadas

  • M3GAN (2023) AMZN WEB-DL 4K UHD HDR Latino

    M3GAN (2023) AMZN WEB-DL 4K UHD HDR Latino

    2022
    M3GAN (2023) AMZN WEB-DL 4K UHD HDR Latino

    1h 42m 2022

    Descargar M3GAN (2023) AMZN WEB-DL 4K UHD HDR Latino. Cuando Gemma se convierte en la cuidadora de su...

    Director: Stephen W. Moore

    Género: 4K HDR

    Actores: Violet McGraw

  • M3GAN (2022) MA WEB-DL 1080p Latino

    M3GAN (2022) MA WEB-DL 1080p Latino

    2022
    M3GAN (2022) MA WEB-DL 1080p Latino

    1h 42m 2022

    Descargar M3GAN (2022) MA WEB-DL 1080p Latino. Cuando Gemma se convierte en la cuidadora de su sobrina...

    Director: Stephen W. Moore

    Género: Ciencia ficción

    Actores: Violet McGraw

  • Mar de sangre (2022) WEB-DL 1080p Latino

    Mar de sangre (2022) WEB-DL 1080p Latino

    2022
    Mar de sangre (2022) WEB-DL 1080p Latino

    1h 27m 2022

    Descargar Mar de sangre (2022) WEB-DL 1080p Latino. Un grupo de amigos que disfrutan de un fin de semana...

    Director: James Nunn

    Género: Acción

    Actores: Thomas Michael Flynn

descargar The Thing (1982) REMUX 4K HDR Latino – CMHDD 4K HDR 1080p gratis, The Thing (1982) REMUX 4K HDR Latino – CMHDD 4K HDR mega 1 link, The Thing (1982) REMUX 4K HDR Latino – CMHDD 4K HDR pelicula completa, descargar The Thing (1982) REMUX 4K HDR Latino – CMHDD 4K HDR gratis en mega.

The Thing (1982) REMUX 4K HDR Latino – CMHDD pelicula full hd, The Thing (1982) REMUX 4K HDR Latino – CMHDD mega latino, The Thing (1982) REMUX 4K HDR Latino – CMHDD 4k latino, The Thing (1982) REMUX 4K HDR Latino – CMHDD pelicula completa, The Thing (1982) REMUX 4K HDR Latino – CMHDD descargar gratis, descargar The Thing (1982) REMUX 4K HDR Latino – CMHDD pelicula latino, The Thing (1982) REMUX 4K HDR Latino – CMHDD 1 link mega, The Thing (1982) REMUX 4K HDR Latino – CMHDD 1 link google drive, The Thing (1982) REMUX 4K HDR Latino – CMHDD hd 1080p latino.
Comentarios 0