×

¿Problemas para descargar con Mozilla, EDGE? Deshabilita la opción "Abrir vinculos en una pestaña nueva" tal como lo muestra ésta imagen.

The Thaw [Odwilz] (2022) Primera Temporada HMAX WEB-DL 1080p Castellano

289 vistas

Información de The Thaw [Odwilz] (2022) Primera Temporada HMAX WEB-DL 1080p Castellano

Datos de la película

  • Calidad: 1080p
  • Audio: Se especifica abajo de la Sinopsis
  • Subtitulos: Español España SRT - Ingles SRT
  • Resolución: 1920x1080
  • Formato: MKV
  • Codec: H.264
  • Encoder: cinemaniahdd
  • Mediainfo: Clic para Mostrar Datos Ver
  • The Thaw (Odwilz) T01E01 HMAX WEB-DL 1080p Latino [CNMNHDD].mkv
    Format                      : Matroska
    Format version              : Version 4
    File size                   : 3.27 GiB
    Duration                    : 50 min 1 s
    Overall bit rate mode       : Variable
    Overall bit rate            : 9 362 kb/s
    Movie name                  : The Thaw (Odwilz) S01E01 - Episode 1 [1080p] (CNMNHDD)
    Encoded date                : UTC 2022-06-24 01:37:15
    Writing application         : mkvmerge v56.1.0 ('My Friend') 64-bit
    Writing library             : libebml v1.4.2 + libmatroska v1.6.4

    Video
    ID                          : 1
    Format                      : AVC
    Format/Info                 : Advanced Video Codec
    Format profile              : High@L4
    Format settings             : CABAC / 4 Ref Frames
    Format settings, CABAC      : Yes
    Format settings, Reference  : 4 frames
    Codec ID                    : V_MPEG4/ISO/AVC
    Duration                    : 50 min 1 s
    Bit rate mode               : Variable
    Bit rate                    : 8 250 kb/s
    Maximum bit rate            : 12.4 Mb/s
    Width                       : 1 920 pixels
    Height                      : 1 080 pixels
    Display aspect ratio        : 16:9
    Frame rate mode             : Constant
    Frame rate                  : 25.000 FPS
    Color space                 : YUV
    Chroma subsampling          : 4:2:0
    Bit depth                   : 8 bits
    Scan type                   : Progressive
    Bits/(Pixel*Frame)          : 0.159
    Stream size                 : 2.87 GiB (88%)
    Title                       : CinemaniaHDD
    Writing library             : x264 core 157 r2965 861cec4
    Encoding settings           : cabac=1 / ref=4 / deblock=1:0:0 / analyse=0x3:0x113 / me=hex / subme=7 / psy=1 / psy_rd=1.00:0.00 / mixed_ref=1 / me_range=16 / chroma_me=1 / trellis=1 / 8x8dct=1 / cqm=0 / deadzone=21,11 / fast_pskip=1 / chroma_qp_offset=-2 / threads=34 / lookahead_threads=5 / sliced_threads=0 / nr=0 / decimate=1 / interlaced=0 / bluray_compat=0 / constrained_intra=0 / bframes=3 / b_pyramid=2 / b_adapt=1 / b_bias=0 / direct=1 / weightb=1 / open_gop=0 / weightp=2 / keyint=100 / keyint_min=100 / scenecut=40 / intra_refresh=0 / rc_lookahead=40 / rc=2pass / mbtree=1 / bitrate=8250 / ratetol=1.0 / qcomp=0.60 / qpmin=0 / qpmax=69 / qpstep=4 / cplxblur=20.0 / qblur=0.5 / vbv_maxrate=12375 / vbv_bufsize=6187 / nal_hrd=vbr / filler=0 / ip_ratio=1.40 / aq=1:1.00
    Default                     : Yes
    Forced                      : No
    Color range                 : Limited
    Color primaries             : BT.709
    Transfer characteristics    : BT.709
    Matrix coefficients         : BT.709

    Audio #1
    ID                          : 2
    Format                      : AC-3
    Format/Info                 : Audio Coding 3
    Commercial name             : Dolby Digital
    Codec ID                    : A_AC3
    Duration                    : 50 min 0 s
    Bit rate mode               : Constant
    Bit rate                    : 384 kb/s
    Channel(s)                  : 6 channels
    Channel layout              : L R C LFE Ls Rs
    Sampling rate               : 48.0 kHz
    Frame rate                  : 31.250 FPS (1536 SPF)
    Compression mode            : Lossy
    Stream size                 : 137 MiB (4%)
    Title                       : Castellano [CinemaniaHDD]
    Language                    : Spanish
    Service kind                : Complete Main
    Default                     : Yes
    Forced                      : No

    Audio #2
    ID                          : 3
    Format                      : AC-3
    Format/Info                 : Audio Coding 3
    Commercial name             : Dolby Digital
    Codec ID                    : A_AC3
    Duration                    : 50 min 0 s
    Bit rate mode               : Constant
    Bit rate                    : 384 kb/s
    Channel(s)                  : 6 channels
    Channel layout              : L R C LFE Ls Rs
    Sampling rate               : 48.0 kHz
    Frame rate                  : 31.250 FPS (1536 SPF)
    Compression mode            : Lossy
    Stream size                 : 137 MiB (4%)
    Title                       : Inglés [CinemaniaHDD]
    Language                    : English
    Service kind                : Complete Main
    Default                     : No
    Forced                      : No

    Audio #3
    ID                          : 4
    Format                      : AC-3
    Format/Info                 : Audio Coding 3
    Commercial name             : Dolby Digital
    Codec ID                    : A_AC3
    Duration                    : 50 min 0 s
    Bit rate mode               : Constant
    Bit rate                    : 384 kb/s
    Channel(s)                  : 6 channels
    Channel layout              : L R C LFE Ls Rs
    Sampling rate               : 48.0 kHz
    Frame rate                  : 31.250 FPS (1536 SPF)
    Compression mode            : Lossy
    Stream size                 : 137 MiB (4%)
    Title                       : Polaco [CinemaniaHDD]
    Language                    : Polish
    Service kind                : Complete Main
    Default                     : No
    Forced                      : No

    Text
    ID                          : 5
    Format                      : UTF-8
    Codec ID                    : S_TEXT/UTF8
    Codec ID/Info               : UTF-8 Plain Text
    Duration                    : 48 min 10 s
    Bit rate                    : 37 b/s
    Count of elements           : 387
    Stream size                 : 13.1 KiB (0%)
    Title                       : Castellano [CinemaniaHDD]
    Language                    : Spanish
    Default                     : No
    Forced                      : No

    Menu
    00:06:20.240                : Intro

     

  • Peso: 3.27 GiB Aprox ---- 19 GiB in 6 Chapters.

Sinopsis

Después de que se encuentre el cuerpo de una mujer joven en las aguas heladas del río Oder de Polonia, la detective Katarzyna Zawieja, recién viuda, dirige la investigación para localizar al asesino. Cuando se hace evidente que la víctima dio a luz poco antes de su muerte, Zawieja, que nunca se da por vencida fácilmente, va en busca del recién nacido desaparecido. Todavía conmocionada por el presunto suicidio de su marido, emprende un esfuerzo exhaustivo para resolver el caso, aunque eso signifique enfrentarse a sus propias circunstancias y ponerse a sí misma, y a su frágil familia, en el punto de mira de los criminales más peligrosos del país. La búsqueda implacable de la mujer por la verdad mientras se atreve a enfrentar sus propios demonios y encontrarse a sí misma.

Español Castellano AC3 5.1 – Ingles AC3 5.1 – Polaco [Original] AC3 5.1

Ficha técnica

  • Titulo original: Odwilż
  • Fecha de lanzamiento: 01-04-2022 (PL)
  • Género: Crimen, Drama, Series

Video trailer de la película

Enlaces de descarga

Rip de Bluray

Descargar The Thaw [Odwilz] (2022) Primera Temporada HMAX WEB-DL 1080p Castellano




Aportes de DPeliculasHDmega la pass es:dpeliculashdmega.org Aportes de CinemaniaHD la pass es:cinemaniahdd.com
Guardado en : Crimen , Drama , Series

Películas relacionadas

The Thaw [Odwilz] (2022) Primera Temporada HMAX WEB-DL 1080p Castellano pelicula full hd, The Thaw [Odwilz] (2022) Primera Temporada HMAX WEB-DL 1080p Castellano mega latino, The Thaw [Odwilz] (2022) Primera Temporada HMAX WEB-DL 1080p Castellano 4k latino, The Thaw [Odwilz] (2022) Primera Temporada HMAX WEB-DL 1080p Castellano pelicula completa, The Thaw [Odwilz] (2022) Primera Temporada HMAX WEB-DL 1080p Castellano descargar gratis, descargar The Thaw [Odwilz] (2022) Primera Temporada HMAX WEB-DL 1080p Castellano pelicula latino, The Thaw [Odwilz] (2022) Primera Temporada HMAX WEB-DL 1080p Castellano 1 link mega, The Thaw [Odwilz] (2022) Primera Temporada HMAX WEB-DL 1080p Castellano 1 link google drive, The Thaw [Odwilz] (2022) Primera Temporada HMAX WEB-DL 1080p Castellano hd 1080p latino.
Comentarios 0