×

¿Problemas para descargar con Mozilla, EDGE? Deshabilita la opción "Abrir vinculos en una pestaña nueva" tal como lo muestra ésta imagen.

The Terminator (1984) REMUX 1080p Latino – CMHDD

177 vistas

Información de The Terminator (1984) REMUX 1080p Latino – CMHDD

Datos de la película

  • Calidad: Full 1080p
  • Audio: Español Latino AC3 5.1 BLURAY - Ingles DTS 5.1 BLURAY
  • Subtitulos: Español Latino PGS
  • Resolución: 19201080p
  • Formato: MKV
  • Codec: H.264
  • Encoder: Dracarys
  • Mediainfo: Clic para Mostrar Datos Ver
  • Format                      : Matroska
    Format version              : Version 4
    File size                   : 27.2 GiB
    Duration                    : 1 h 47 min
    Overall bit rate mode       : Variable
    Overall bit rate            : 36.2 Mb/s
    Movie name                  : The Terminator (1984) REMUX 1080p Latino - CMHDD
    Encoded date                : UTC 2023-10-12 15:47:55
    Writing application         : mkvmerge v47.0.0 ('Black Flag') 64-bit
    Writing library             : libebml v1.3.10 + libmatroska v1.5.2

    Video
    ID                          : 1
    ID in the original source m : 4113 (0x1011)
    Format                      : AVC
    Format/Info                 : Advanced Video Codec
    Format profile              : High@L4.1
    Format settings             : CABAC / 4 Ref Frames
    Format settings, CABAC      : Yes
    Format settings, Reference  : 4 frames
    Codec ID                    : V_MPEG4/ISO/AVC
    Duration                    : 1 h 47 min
    Bit rate mode               : Variable
    Bit rate                    : 31.7 Mb/s
    Maximum bit rate            : 38.0 Mb/s
    Width                       : 1 920 pixels
    Height                      : 1 080 pixels
    Display aspect ratio        : 16:9
    Frame rate mode             : Constant
    Frame rate                  : 23.976 (24000/1001) FPS
    Color space                 : YUV
    Chroma subsampling          : 4:2:0
    Bit depth                   : 8 bits
    Scan type                   : Progressive
    Bits/(Pixel*Frame)          : 0.637
    Stream size                 : 23.8 GiB (87%)
    Default                     : Yes
    Forced                      : No
    Original source medium      : Blu-ray

    Audio #1
    ID                          : 2
    ID in the original source m : 4375 (0x1117)
    Format                      : DTS XLL
    Format/Info                 : Digital Theater Systems
    Commercial name             : DTS-HD Master Audio
    Codec ID                    : A_DTS
    Duration                    : 1 h 47 min
    Bit rate mode               : Variable
    Bit rate                    : 4 115 kb/s
    Channel(s)                  : 6 channels
    Channel layout              : C L R Ls Rs LFE
    Sampling rate               : 48.0 kHz
    Frame rate                  : 93.750 FPS (512 SPF)
    Bit depth                   : 24 bits
    Compression mode            : Lossless
    Stream size                 : 3.09 GiB (11%)
    Language                    : English
    Default                     : No
    Forced                      : No
    Original source medium      : Blu-ray

    Audio #2
    ID                          : 3
    Format                      : AC-3
    Format/Info                 : Audio Coding 3
    Commercial name             : Dolby Digital
    Codec ID                    : A_AC3
    Duration                    : 1 h 47 min
    Bit rate mode               : Constant
    Bit rate                    : 448 kb/s
    Channel(s)                  : 6 channels
    Channel layout              : L R C LFE Ls Rs
    Sampling rate               : 48.0 kHz
    Frame rate                  : 31.250 FPS (1536 SPF)
    Compression mode            : Lossy
    Delay relative to video     : 16 s 0 ms
    Stream size                 : 343 MiB (1%)
    Language                    : Spanish
    Service kind                : Complete Main
    Default                     : Yes
    Forced                      : No

    Text #1
    ID                          : 4
    Format                      : PGS
    Muxing mode                 : zlib
    Codec ID                    : S_HDMV/PGS
    Codec ID/Info               : Picture based subtitle format used on BDs/HD-DVDs
    Duration                    : 32 min 35 s
    Bit rate                    : 105 b/s
    Frame rate                  : 0.002 FPS
    Count of elements           : 4
    Stream size                 : 25.3 KiB (0%)
    Language                    : Spanish
    Default                     : Yes
    Forced                      : No

    Text #2
    ID                          : 5
    Format                      : PGS
    Muxing mode                 : zlib
    Codec ID                    : S_HDMV/PGS
    Codec ID/Info               : Picture based subtitle format used on BDs/HD-DVDs
    Duration                    : 1 h 45 min
    Bit rate                    : 18.5 kb/s
    Frame rate                  : 0.184 FPS
    Count of elements           : 1168
    Stream size                 : 14.0 MiB (0%)
    Language                    : Spanish
    Default                     : No
    Forced                      : No

    Menu
    00:00:00.000                : en:Capítulo 01
    00:03:32.254                : en:Capítulo 02
    00:05:18.151                : en:Capítulo 03
    00:06:31.016                : en:Capítulo 04
    00:11:38.323                : en:Capítulo 05
    00:13:45.324                : en:Capítulo 06
    00:15:11.828                : en:Capítulo 07
    00:20:44.618                : en:Capítulo 08
    00:22:49.618                : en:Capítulo 09
    00:29:49.788                : en:Capítulo 10
    00:33:15.035                : en:Capítulo 11
    00:38:47.116                : en:Capítulo 12
    00:41:25.190                : en:Capítulo 13
    00:47:46.489                : en:Capítulo 14
    00:50:39.995                : en:Capítulo 15
    00:54:41.570                : en:Capítulo 16
    00:59:04.916                : en:Capítulo 17
    01:03:53.538                : en:Capítulo 18
    01:09:37.548                : en:Capítulo 19
    01:14:08.986                : en:Capítulo 20
    01:15:00.079                : en:Capítulo 21
    01:17:18.801                : en:Capítulo 22
    01:18:30.372                : en:Capítulo 23
    01:23:00.893                : en:Capítulo 24
    01:26:24.720                : en:Capítulo 25
    01:30:22.584                : en:Capítulo 26
    01:32:19.367                : en:Capítulo 27
    01:35:52.121                : en:Capítulo 28
    01:39:53.863                : en:Capítulo 29
    01:40:18.721                : en:Capítulo 30
    01:40:49.335                : en:Capítulo 31
    01:43:12.895                : en:Capítulo 32

     

  • Peso: 27.2 GiB

Sinopsis

Un cyborg ha sido enviado desde el futuro en una misión mortal: eliminar a Sarah Connor, una joven cuya vida tendrá una gran importancia en los próximos años. Sarah tiene sólo un protector —Kyle Reese— también enviado desde el futuro. El Terminator utiliza su inteligencia excepcional y fuerza para encontrar a Sarah, pero ¿hay alguna forma de detener al cyborg aparentemente indestructible?

Ficha técnica

Video trailer de la película

Enlaces de descarga

Rip de Bluray

Descargar The Terminator (1984) REMUX 1080p Latino – CMHDD




Aportes de DPeliculasHDmega la pass es:dpeliculashdmega.org Aportes de CinemaniaHD la pass es:cinemaniahdd.com Aportes recientes:cinemaniahdd.net
Guardado en : Acción , Ciencia ficción , Suspenso

Películas relacionadas

descargar The Terminator (1984) REMUX 1080p Latino – CMHDD Full 1080p 1080p gratis, The Terminator (1984) REMUX 1080p Latino – CMHDD Full 1080p mega 1 link, The Terminator (1984) REMUX 1080p Latino – CMHDD Full 1080p pelicula completa, descargar The Terminator (1984) REMUX 1080p Latino – CMHDD Full 1080p gratis en mega.

The Terminator (1984) REMUX 1080p Latino – CMHDD pelicula full hd, The Terminator (1984) REMUX 1080p Latino – CMHDD mega latino, The Terminator (1984) REMUX 1080p Latino – CMHDD 4k latino, The Terminator (1984) REMUX 1080p Latino – CMHDD pelicula completa, The Terminator (1984) REMUX 1080p Latino – CMHDD descargar gratis, descargar The Terminator (1984) REMUX 1080p Latino – CMHDD pelicula latino, The Terminator (1984) REMUX 1080p Latino – CMHDD 1 link mega, The Terminator (1984) REMUX 1080p Latino – CMHDD 1 link google drive, The Terminator (1984) REMUX 1080p Latino – CMHDD hd 1080p latino.
Comentarios 0