×

¿Problemas para descargar con Mozilla, EDGE? Deshabilita la opción "Abrir vinculos en una pestaña nueva" tal como lo muestra ésta imagen.

The Tender Bar (2022) AMZN WEB-DL 1080p Latino

325 vistas

Información de The Tender Bar (2022) AMZN WEB-DL 1080p Latino

Datos de la película

  • Calidad: 1080p
  • Audio: Español Latino AC3 5.1 WEB-DL - Ingles AC3 5.1 WEB-DL
  • Subtitulos: Español Latino SRT- FORZADOS SRT
  • Resolución: 1920x1080
  • Formato: MKV
  • Codec: H.264
  • Encoder: cinemaniahdd
  • Mediainfo: Clic para Mostrar Datos Ver
  • The Tender Bar (2022) AMZN WEB-DL 1080p Latino [CNMNHDD].mkv
    Format                      : Matroska
    Format version              : Version 4
    File size                   : 8.53 GiB
    Duration                    : 1 h 46 min
    Overall bit rate            : 11.4 Mb/s
    Movie name                  : The Tender Bar (2022) - CinemaniaHDD.Net
    Encoded date                : UTC 2022-01-07 00:59:14
    Writing application         : mkvmerge v56.1.0 ('My Friend') 64-bit
    Writing library             : libebml v1.4.2 + libmatroska v1.6.4

    Video
    ID                          : 1
    Format                      : AVC
    Format/Info                 : Advanced Video Codec
    Format profile              : High@L4
    Format settings             : CABAC / 4 Ref Frames
    Format settings, CABAC      : Yes
    Format settings, Reference  : 4 frames
    Codec ID                    : V_MPEG4/ISO/AVC
    Duration                    : 1 h 46 min
    Bit rate mode               : Constant
    Bit rate                    : 9 488 kb/s
    Nominal bit rate            : 10 000 kb/s
    Width                       : 1 920 pixels
    Height                      : 1 040 pixels
    Display aspect ratio        : 1.85:1
    Frame rate mode             : Constant
    Frame rate                  : 24.000 FPS
    Color space                 : YUV
    Chroma subsampling          : 4:2:0
    Bit depth                   : 8 bits
    Scan type                   : Progressive
    Bits/(Pixel*Frame)          : 0.198
    Stream size                 : 7.09 GiB (83%)
    Title                       : CinemaniaHDD
    Default                     : Yes
    Forced                      : No
    Color range                 : Limited
    Color primaries             : BT.709
    Transfer characteristics    : BT.709
    Matrix coefficients         : BT.709

    Audio #1
    ID                          : 2
    Format                      : AC-3
    Format/Info                 : Audio Coding 3
    Commercial name             : Dolby Digital
    Codec ID                    : A_AC3
    Duration                    : 1 h 46 min
    Bit rate mode               : Constant
    Bit rate                    : 640 kb/s
    Channel(s)                  : 6 channels
    Channel layout              : L R C LFE Ls Rs
    Sampling rate               : 48.0 kHz
    Frame rate                  : 31.250 FPS (1536 SPF)
    Compression mode            : Lossy
    Stream size                 : 490 MiB (6%)
    Title                       : Español latino [CinemaniaHDD]
    Language                    : Spanish
    Service kind                : Complete Main
    Default                     : Yes
    Forced                      : No

    Audio #2
    ID                          : 3
    Format                      : E-AC-3
    Format/Info                 : Enhanced AC-3
    Commercial name             : Dolby Digital Plus
    Codec ID                    : A_EAC3
    Duration                    : 1 h 46 min
    Bit rate mode               : Constant
    Bit rate                    : 640 kb/s
    Channel(s)                  : 6 channels
    Channel layout              : L R C LFE Ls Rs
    Sampling rate               : 48.0 kHz
    Frame rate                  : 31.250 FPS (1536 SPF)
    Compression mode            : Lossy
    Stream size                 : 490 MiB (6%)
    Title                       : Español latino / E-AC3 [CinemaniaHDD]
    Language                    : Spanish
    Service kind                : Complete Main
    Default                     : No
    Forced                      : No

    Audio #3
    ID                          : 4
    Format                      : E-AC-3
    Format/Info                 : Enhanced AC-3
    Commercial name             : Dolby Digital Plus
    Codec ID                    : A_EAC3
    Duration                    : 1 h 46 min
    Bit rate mode               : Constant
    Bit rate                    : 640 kb/s
    Channel(s)                  : 6 channels
    Channel layout              : L R C LFE Ls Rs
    Sampling rate               : 48.0 kHz
    Frame rate                  : 31.250 FPS (1536 SPF)
    Compression mode            : Lossy
    Stream size                 : 490 MiB (6%)
    Title                       : Inglés [CinemaniaHDD]
    Language                    : English
    Service kind                : Complete Main
    Default                     : No
    Forced                      : No

    Text #1
    ID                          : 5
    Format                      : UTF-8
    Codec ID                    : S_TEXT/UTF8
    Codec ID/Info               : UTF-8 Plain Text
    Duration                    : 1 h 40 min
    Bit rate                    : 0 b/s
    Count of elements           : 9
    Stream size                 : 258 Bytes (0%)
    Title                       : Forzados [CinemaniaHDD]
    Language                    : Spanish
    Default                     : Yes
    Forced                      : Yes

    Text #2
    ID                          : 6
    Format                      : UTF-8
    Codec ID                    : S_TEXT/UTF8
    Codec ID/Info               : UTF-8 Plain Text
    Duration                    : 1 h 44 min
    Bit rate                    : 56 b/s
    Count of elements           : 1340
    Stream size                 : 43.3 KiB (0%)
    Title                       : Español latino [CinemaniaHDD]
    Language                    : Spanish
    Default                     : No
    Forced                      : No

    Text #3
    ID                          : 7
    Format                      : UTF-8
    Codec ID                    : S_TEXT/UTF8
    Codec ID/Info               : UTF-8 Plain Text
    Duration                    : 1 h 44 min
    Bit rate                    : 79 b/s
    Count of elements           : 1894
    Stream size                 : 60.7 KiB (0%)
    Title                       : Inglés [CinemaniaHDD]
    Language                    : English
    Default                     : No
    Forced                      : No

    Menu
    00:00:00.000                : Amazon Studios
    00:00:20.000                : Studio Logo
    00:00:46.000                : Scene 3
    00:03:04.000                : Scene 4
    00:06:16.000                : Scene 5
    00:07:57.000                : Scene 6
    00:10:46.000                : Scene 7
    00:11:16.000                : Scene 8
    00:15:00.000                : Scene 9
    00:16:23.000                : Scene 10
    00:17:19.000                : Scene 11
    00:20:44.000                : Scene 12
    00:21:15.000                : Scene 13
    00:23:31.000                : Scene 14
    00:25:23.000                : Scene 15
    00:27:21.000                : Scene 16
    00:28:35.000                : Scene 17
    00:29:11.000                : Scene 18
    00:31:37.000                : Scene 19
    00:33:53.000                : Scene 20
    00:36:25.000                : Scene 21
    00:38:43.000                : Scene 22
    00:41:17.000                : Scene 23
    00:42:22.000                : Scene 24
    00:43:43.000                : Scene 25
    00:45:28.000                : Scene 26
    00:46:41.000                : Scene 27
    00:48:56.000                : Scene 28
    00:51:40.000                : Scene 29
    00:54:08.000                : Scene 30
    00:55:42.000                : Scene 31
    01:02:11.000                : Scene 32
    01:03:36.000                : Scene 33
    01:05:15.000                : Scene 34
    01:06:31.000                : Scene 35
    01:07:44.000                : Scene 36
    01:11:05.000                : Scene 37
    01:12:08.000                : Scene 38
    01:13:22.000                : Scene 39
    01:17:12.000                : Scene 40
    01:19:33.000                : Scene 41
    01:22:54.000                : Scene 42
    01:26:03.000                : Scene 43
    01:29:45.000                : Scene 44
    01:34:25.000                : Scene 45
    01:35:53.000                : Scene 46
    01:39:09.000                : End Credits

     

  • Peso: 8.53 GiB

Sinopsis

Del director George Clooney y basada en las memorias superventas, «El bar de las grandes esperanzas» nos muestra a un aspirante a escritor (Tye Sheridan) que persigue sus sueños románticos y profesionales. Desde un taburete en el bar de su tío (Ben Affleck), aprende lo que significa crecer de la mano de un extravagante grupo de personajes locales.

Ficha técnica

  • Titulo original: The Tender Bar
  • Fecha de lanzamiento: 17-12-2021 (United States of America)
  • Director: George Clooney
  • Género: Drama

Video trailer de la película

Enlaces de descarga

Rip de Bluray

Descargar The Tender Bar (2022) AMZN WEB-DL 1080p Latino




Aportes de DPeliculasHDmega la pass es:dpeliculashdmega.org Aportes de CinemaniaHD la pass es:cinemaniahdd.com
Guardado en : Drama

Películas relacionadas

  • Blonde (2022) NF WEB-DL 1080p Latino

    Blonde (2022) NF WEB-DL 1080p Latino

    2022
    Blonde (2022) NF WEB-DL 1080p Latino

    2h 46m 2022

    Descargar Blonde (2022) NF WEB-DL 1080p Latino. Basada en el bestseller de la cinco veces finalista al...

    Director: Kristin Bree Calabrese

    Género: Drama

    Actores: Xavier Samuel

  • Infiniti (2022) Primera Temporada WEB-DL 1080p Latino

    Infiniti (2022) Primera Temporada WEB-DL 1080p Latino

    2022
    Infiniti (2022) Primera Temporada WEB-DL 1080p Latino

    0h 52m 2022

    La ISS, la Estación Espacial Internacional se ha quedado en silencio. La tripulación está en peligro....

    Director: Stéphane Pannetier

    Género: Drama

    Actores: Vlad Ivanov

  • Athena (2022) NF WEB-DL 1080p Latino

    Athena (2022) NF WEB-DL 1080p Latino

    2022
    Athena (2022) NF WEB-DL 1080p Latino

    1h 37m 2022

    Descargar Athena (2022) NF WEB-DL 1080p Latino. Horas después de la trágica muerte de su hermano menor...

    Director: Romain Gavras

    Género: Acción

    Actores: Tarek Haddaji

descargar The Tender Bar (2022) AMZN WEB-DL 1080p Latino 1080p 1080p gratis, The Tender Bar (2022) AMZN WEB-DL 1080p Latino 1080p mega 1 link, The Tender Bar (2022) AMZN WEB-DL 1080p Latino 1080p pelicula completa, descargar The Tender Bar (2022) AMZN WEB-DL 1080p Latino 1080p gratis en mega.

The Tender Bar (2022) AMZN WEB-DL 1080p Latino pelicula full hd, The Tender Bar (2022) AMZN WEB-DL 1080p Latino mega latino, The Tender Bar (2022) AMZN WEB-DL 1080p Latino 4k latino, The Tender Bar (2022) AMZN WEB-DL 1080p Latino pelicula completa, The Tender Bar (2022) AMZN WEB-DL 1080p Latino descargar gratis, descargar The Tender Bar (2022) AMZN WEB-DL 1080p Latino pelicula latino, The Tender Bar (2022) AMZN WEB-DL 1080p Latino 1 link mega, The Tender Bar (2022) AMZN WEB-DL 1080p Latino 1 link google drive, The Tender Bar (2022) AMZN WEB-DL 1080p Latino hd 1080p latino.
Comentarios 0