×

¿Problemas para descargar con Mozilla, EDGE? Deshabilita la opción "Abrir vinculos en una pestaña nueva" tal como lo muestra ésta imagen.

The Ten Commandments (1956) REMUX 4K HDR Latino – CMHDD

330 vistas

Información de The Ten Commandments (1956) REMUX 4K HDR Latino – CMHDD

Datos de la película

  • Calidad: 4K HDR
  • Audio: Español Latino AC3 2.0 BLURAY - Ingles DTS 5.1 BLURAY
  • Subtitulos: Español Latino PGS
  • Resolución: 3840x2160p
  • Formato: MKV
  • Codec: HEVC
  • Encoder: Dracarys
  • Mediainfo: Clic para Mostrar Datos Ver
  • Format                      : Matroska
    Format version              : Version 4
    File size                   : 82.5 GiB
    Duration                    : 3 h 51 min
    Overall bit rate mode       : Variable
    Overall bit rate            : 51.0 Mb/s
    Movie name                  : The Ten Commandments (1956) REMUX 4K HDR Latino - CMHDD
    Encoded date                : UTC 2021-04-01 04:38:24
    Writing application         : mkvmerge v51.0.0 ('I Wish') 64-bit
    Writing library             : libebml v1.4.0 + libmatroska v1.6.2
    Cover                       : Yes
    Attachments                 : cover.jpg

    Video
    ID                          : 1
    ID in the original source m : 4113 (0x1011)
    Format                      : HEVC
    Format/Info                 : High Efficiency Video Coding
    Format profile              : Main 10@L5.1@High
    HDR format                  : SMPTE ST 2086, HDR10 compatible
    Codec ID                    : V_MPEGH/ISO/HEVC
    Duration                    : 3 h 51 min
    Bit rate                    : 47.4 Mb/s
    Width                       : 3 840 pixels
    Height                      : 2 160 pixels
    Display aspect ratio        : 16:9
    Frame rate mode             : Constant
    Frame rate                  : 23.976 (24000/1001) FPS
    Color space                 : YUV
    Chroma subsampling          : 4:2:0 (Type 2)
    Bit depth                   : 10 bits
    Bits/(Pixel*Frame)          : 0.238
    Stream size                 : 76.7 GiB (93%)
    Default                     : Yes
    Forced                      : No
    Color range                 : Limited
    Color primaries             : BT.2020
    Transfer characteristics    : PQ
    Matrix coefficients         : BT.2020 non-constant
    Mastering display color pri : Display P3
    Mastering display luminance : min: 0.0050 cd/m2, max: 4000 cd/m2
    Maximum Content Light Level : 1281 cd/m2
    Maximum Frame-Average Light : 148 cd/m2
    Original source medium      : Blu-ray

    Audio #1
    ID                          : 2
    Format                      : AC-3
    Format/Info                 : Audio Coding 3
    Commercial name             : Dolby Digital
    Codec ID                    : A_AC3
    Duration                    : 3 h 51 min
    Bit rate mode               : Constant
    Bit rate                    : 256 kb/s
    Channel(s)                  : 2 channels
    Channel layout              : L R
    Sampling rate               : 48.0 kHz
    Frame rate                  : 31.250 FPS (1536 SPF)
    Compression mode            : Lossy
    Stream size                 : 424 MiB (1%)
    Language                    : Spanish
    Service kind                : Complete Main
    Default                     : Yes
    Forced                      : No

    Audio #2
    ID                          : 3
    ID in the original source m : 4352 (0x1100)
    Format                      : DTS XLL
    Format/Info                 : Digital Theater Systems
    Commercial name             : DTS-HD Master Audio
    Codec ID                    : A_DTS
    Duration                    : 3 h 51 min
    Bit rate mode               : Variable
    Bit rate                    : 3 320 kb/s
    Channel(s)                  : 6 channels
    Channel layout              : C L R Ls Rs LFE
    Sampling rate               : 48.0 kHz
    Frame rate                  : 93.750 FPS (512 SPF)
    Bit depth                   : 24 bits
    Compression mode            : Lossless
    Stream size                 : 5.37 GiB (7%)
    Language                    : English
    Default                     : No
    Forced                      : No
    Original source medium      : Blu-ray

    Text #1
    ID                          : 4
    Format                      : PGS
    Muxing mode                 : zlib
    Codec ID                    : S_HDMV/PGS
    Codec ID/Info               : Picture based subtitle format used on BDs/HD-DVDs
    Duration                    : 3 h 46 min
    Bit rate                    : 46.5 kb/s
    Count of elements           : 5100
    Stream size                 : 75.5 MiB (0%)
    Language                    : Spanish
    Default                     : No
    Forced                      : No

    Text #2
    ID                          : 5
    Format                      : PGS
    Muxing mode                 : zlib
    Codec ID                    : S_HDMV/PGS
    Codec ID/Info               : Picture based subtitle format used on BDs/HD-DVDs
    Duration                    : 3 h 46 min
    Bit rate                    : 769 b/s
    Count of elements           : 84
    Stream size                 : 1.25 MiB (0%)
    Language                    : Spanish
    Default                     : Yes
    Forced                      : No

    Menu
    00:00:00.000                : en:Chapter 01
    00:01:40.266                : en:Chapter 02
    00:04:04.911                : en:Chapter 03
    00:09:44.500                : en:Chapter 04
    00:12:55.232                : en:Chapter 05
    00:17:05.065                : en:Chapter 06
    00:20:20.802                : en:Chapter 07
    00:25:57.889                : en:Chapter 08
    00:27:29.648                : en:Chapter 09
    00:30:48.888                : en:Chapter 10
    00:36:17.175                : en:Chapter 11
    00:38:17.545                : en:Chapter 12
    00:43:46.582                : en:Chapter 13
    00:49:26.546                : en:Chapter 14
    00:59:29.732                : en:Chapter 15
    01:07:28.544                : en:Chapter 16
    01:15:25.938                : en:Chapter 17
    01:18:42.634                : en:Chapter 18
    01:27:31.579                : en:Chapter 19
    01:38:42.666                : en:Chapter 20
    01:41:58.821                : en:Chapter 21
    01:44:09.785                : en:Chapter 22
    01:47:27.858                : en:Chapter 23
    01:53:08.865                : en:Chapter 24
    01:56:30.149                : en:Chapter 25
    01:59:40.631                : en:Chapter 26
    02:02:49.445                : en:Chapter 27
    02:05:54.630                : en:Chapter 28
    02:08:43.757                : en:Chapter 29
    02:15:49.724                : en:Chapter 30
    02:18:05.360                : en:Chapter 31
    02:23:21.092                : en:Chapter 32
    02:25:09.575                : en:Chapter 33
    02:29:49.397                : en:Chapter 34
    02:37:17.344                : en:Chapter 35
    02:44:32.195                : en:Chapter 36
    02:46:48.415                : en:Chapter 37
    02:55:14.045                : en:Chapter 38
    02:58:59.729                : en:Chapter 39
    03:10:00.889                : en:Chapter 40
    03:14:23.693                : en:Chapter 41
    03:19:28.122                : en:Chapter 42
    03:29:06.116                : en:Chapter 43
    03:32:01.458                : en:Chapter 44
    03:37:55.228                : en:Chapter 45
    03:40:34.930                : en:Chapter 46
    03:43:05.747                : en:Chapter 47
    03:46:52.432                : en:Chapter 48

  • Peso: 82.5 GiB

Sinopsis

Drama bíblico ambientado en el Antiguo Egipto que narra la historia de Moisés, favorito de la familia del faraón, que decide renunciar a su vida de privilegios para conducir a su pueblo, los hebreos esclavizados en Egipto, hacia la libertad.

Ficha técnica

Video trailer de la película

Enlaces de descarga

Rip de Bluray

Descargar The Ten Commandments (1956) REMUX 4K HDR Latino – CMHDD


Aportes de DPeliculasHDmega la pass es:dpeliculashdmega.org Aportes de CinemaniaHD la pass es:cinemaniahdd.com
Guardado en : Drama , Historia

Películas relacionadas

descargar The Ten Commandments (1956) REMUX 4K HDR Latino – CMHDD 4K HDR 1080p gratis, The Ten Commandments (1956) REMUX 4K HDR Latino – CMHDD 4K HDR mega 1 link, The Ten Commandments (1956) REMUX 4K HDR Latino – CMHDD 4K HDR pelicula completa, descargar The Ten Commandments (1956) REMUX 4K HDR Latino – CMHDD 4K HDR gratis en mega.

The Ten Commandments (1956) REMUX 4K HDR Latino – CMHDD pelicula full hd, The Ten Commandments (1956) REMUX 4K HDR Latino – CMHDD mega latino, The Ten Commandments (1956) REMUX 4K HDR Latino – CMHDD 4k latino, The Ten Commandments (1956) REMUX 4K HDR Latino – CMHDD pelicula completa, The Ten Commandments (1956) REMUX 4K HDR Latino – CMHDD descargar gratis, descargar The Ten Commandments (1956) REMUX 4K HDR Latino – CMHDD pelicula latino, The Ten Commandments (1956) REMUX 4K HDR Latino – CMHDD 1 link mega, The Ten Commandments (1956) REMUX 4K HDR Latino – CMHDD 1 link google drive, The Ten Commandments (1956) REMUX 4K HDR Latino – CMHDD hd 1080p latino.
Comentarios 2
  • John Yunga - 04 agosto, 2021

    como descargo una pelicula sin cuenta vip

    • Dracarys - 04 agosto, 2021

      No puedes si no eres VIP