×

¿Problemas para descargar con Mozilla, EDGE? Deshabilita la opción "Abrir vinculos en una pestaña nueva" tal como lo muestra ésta imagen.

The Taking of Pelham One Two Three (1974) REMUX 1080p Latino – CMHDD

217 vistas

Información de The Taking of Pelham One Two Three (1974) REMUX 1080p Latino – CMHDD

Datos de la película

  • Calidad: Full 1080p
  • Audio: Se especifica abajo de la Sinopsis
  • Subtitulos: Español Latino PGS
  • Resolución: 1920x1080p
  • Formato: MKV
  • Codec: H.264
  • Encoder: Dracarys
  • Mediainfo: Clic para Mostrar Datos Ver
  • Format                      : Matroska
    Format version              : Version 4
    File size                   : 29.6 GiB
    Duration                    : 1 h 44 min
    Overall bit rate mode       : Variable
    Overall bit rate            : 40.7 Mb/s
    Movie name                  : The Taking of Pelham One Two Three (1974) REMUX 1080p Latino - CMHDD
    Encoded date                : UTC 2023-04-07 02:11:06
    Writing application         : mkvmerge v47.0.0 ('Black Flag') 64-bit
    Writing library             : libebml v1.3.10 + libmatroska v1.5.2
    Cover                       : Yes
    Attachments                 : cover.jpg

    Video
    ID                          : 1
    ID in the original source m : 4113 (0x1011)
    Format                      : AVC
    Format/Info                 : Advanced Video Codec
    Format profile              : High@L4.1
    Format settings             : CABAC / 4 Ref Frames
    Format settings, CABAC      : Yes
    Format settings, Reference  : 4 frames
    Codec ID                    : V_MPEG4/ISO/AVC
    Duration                    : 1 h 44 min
    Bit rate mode               : Variable
    Bit rate                    : 38.4 Mb/s
    Maximum bit rate            : 39.5 Mb/s
    Width                       : 1 920 pixels
    Height                      : 1 080 pixels
    Display aspect ratio        : 16:9
    Frame rate mode             : Constant
    Frame rate                  : 23.976 (24000/1001) FPS
    Color space                 : YUV
    Chroma subsampling          : 4:2:0
    Bit depth                   : 8 bits
    Scan type                   : Progressive
    Bits/(Pixel*Frame)          : 0.772
    Stream size                 : 28.0 GiB (94%)
    Default                     : Yes
    Forced                      : No
    Original source medium      : Blu-ray

    Audio #1
    ID                          : 2
    ID in the original source m : 4352 (0x1100)
    Format                      : DTS XLL
    Format/Info                 : Digital Theater Systems
    Commercial name             : DTS-HD Master Audio
    Codec ID                    : A_DTS
    Duration                    : 1 h 44 min
    Bit rate mode               : Variable
    Bit rate                    : 2 099 kb/s
    Channel(s)                  : 2 channels
    Channel layout              : L R
    Sampling rate               : 48.0 kHz
    Frame rate                  : 93.750 FPS (512 SPF)
    Bit depth                   : 24 bits
    Compression mode            : Lossless
    Stream size                 : 1.53 GiB (5%)
    Language                    : English
    Default                     : No
    Forced                      : No
    Original source medium      : Blu-ray

    Audio #2
    ID                          : 3
    ID in the original source m : 4353 (0x1101)
    Format                      : AC-3
    Format/Info                 : Audio Coding 3
    Commercial name             : Dolby Digital
    Codec ID                    : A_AC3
    Duration                    : 1 h 44 min
    Bit rate mode               : Constant
    Bit rate                    : 192 kb/s
    Channel(s)                  : 2 channels
    Channel layout              : L R
    Sampling rate               : 48.0 kHz
    Frame rate                  : 31.250 FPS (1536 SPF)
    Compression mode            : Lossy
    Stream size                 : 143 MiB (0%)
    Language                    : Spanish
    Service kind                : Complete Main
    Default                     : Yes
    Forced                      : No
    Original source medium      : Blu-ray

    Text
    ID                          : 4
    ID in the original source m : 4610 (0x1202)
    Format                      : PGS
    Muxing mode                 : zlib
    Codec ID                    : S_HDMV/PGS
    Codec ID/Info               : Picture based subtitle format used on BDs/HD-DVDs
    Duration                    : 43 min 31 s
    Bit rate                    : 286 b/s
    Frame rate                  : 0.003 FPS
    Count of elements           : 8
    Stream size                 : 91.2 KiB (0%)
    Language                    : Spanish
    Default                     : No
    Forced                      : No
    Original source medium      : Blu-ray

    Menu
    00:00:00.000                : en:Capítulo 01
    00:05:56.272                : en:Capítulo 02
    00:09:35.783                : en:Capítulo 03
    00:11:54.213                : en:Capítulo 04
    00:13:45.449                : en:Capítulo 05
    00:16:49.842                : en:Capítulo 06
    00:20:51.792                : en:Capítulo 07
    00:24:33.054                : en:Capítulo 08
    00:28:12.315                : en:Capítulo 09
    00:29:28.349                : en:Capítulo 10
    00:34:32.612                : en:Capítulo 11
    00:40:03.150                : en:Capítulo 12
    00:41:21.812                : en:Capítulo 13
    00:46:16.982                : en:Capítulo 14
    00:49:34.638                : en:Capítulo 15
    00:52:31.940                : en:Capítulo 16
    00:55:43.590                : en:Capítulo 17
    00:58:57.742                : en:Capítulo 18
    00:59:48.334                : en:Capítulo 19
    01:01:11.292                : en:Capítulo 20
    01:02:24.282                : en:Capítulo 21
    01:05:44.774                : en:Capítulo 22
    01:10:40.027                : en:Capítulo 23
    01:13:50.843                : en:Capítulo 24
    01:19:46.615                : en:Capítulo 25
    01:21:12.826                : en:Capítulo 26
    01:23:17.242                : en:Capítulo 27
    01:27:09.724                : en:Capítulo 28
    01:30:56.742                : en:Capítulo 29
    01:33:01.450                : en:Capítulo 30
    01:37:18.833                : en:Capítulo 31
    01:41:28.082                : en:Capítulo 32

  • Peso: 29.6 GiB

Sinopsis

Unos delincuentes armados secuestran un vagón del metro de Nueva York y retienen como rehenes a 17 pasajeros. A cambio de su liberación exigen que, en el plazo de una hora, se les pague un rescate de un millón de dólares; en caso contrario, amenazan con matar un rehén por cada minuto de retraso. Para entretener al inflexible jefe de la banda (Robert Shaw) hasta la entrega del dinero, el teniente de policía Garber (Matthau) tendrá que usar todo su ingenio.

 

Latino: AC3 2.0  –  Inglés: DTS 2.0

Ficha técnica

Video trailer de la película

Enlaces de descarga

Rip de Bluray

Descargar The Taking of Pelham One Two Three (1974) REMUX 1080p Latino – CMHDD


Aportes de DPeliculasHDmega la pass es:dpeliculashdmega.org Aportes de CinemaniaHD la pass es:cinemaniahdd.com Aportes recientes:cinemaniahdd.net
Guardado en : Acción , Crimen , Suspenso

Películas relacionadas

  • Cómo robar un millón (1966) REMUX 1080p Latino-CMHDD

    Cómo robar un millón (1966) REMUX 1080p Latino-CMHDD

    1966
    Cómo robar un millón (1966) REMUX 1080p Latino-CMHDD

    2h 3m 1966

    Descargar Cómo robar un millón (1966) REMUX 1080p Latino-CMHDD. El padre de Nicole, un legendario coleccionista...

    Director: William Wyler

    Género: Comedia

    Actores: Roger Tréville

  • Milagros Inesperados (1999) 1080p Latino-CMHDD

    Milagros Inesperados (1999) 1080p Latino-CMHDD

    1999
    Milagros Inesperados (1999) 1080p Latino-CMHDD

    3h 9m 1999

    Descargar Milagros Inesperados (1999) 1080p Latino-CMHDD. En el sur de los Estados Unidos, en plena Depresión,...

    Director: Susan Malerstein

    Género: Crimen

    Actores: William Sadler

descargar The Taking of Pelham One Two Three (1974) REMUX 1080p Latino – CMHDD Full 1080p 1080p gratis, The Taking of Pelham One Two Three (1974) REMUX 1080p Latino – CMHDD Full 1080p mega 1 link, The Taking of Pelham One Two Three (1974) REMUX 1080p Latino – CMHDD Full 1080p pelicula completa, descargar The Taking of Pelham One Two Three (1974) REMUX 1080p Latino – CMHDD Full 1080p gratis en mega.

The Taking of Pelham One Two Three (1974) REMUX 1080p Latino – CMHDD pelicula full hd, The Taking of Pelham One Two Three (1974) REMUX 1080p Latino – CMHDD mega latino, The Taking of Pelham One Two Three (1974) REMUX 1080p Latino – CMHDD 4k latino, The Taking of Pelham One Two Three (1974) REMUX 1080p Latino – CMHDD pelicula completa, The Taking of Pelham One Two Three (1974) REMUX 1080p Latino – CMHDD descargar gratis, descargar The Taking of Pelham One Two Three (1974) REMUX 1080p Latino – CMHDD pelicula latino, The Taking of Pelham One Two Three (1974) REMUX 1080p Latino – CMHDD 1 link mega, The Taking of Pelham One Two Three (1974) REMUX 1080p Latino – CMHDD 1 link google drive, The Taking of Pelham One Two Three (1974) REMUX 1080p Latino – CMHDD hd 1080p latino.
Comentarios 0