×

¿Problemas para descargar con Mozilla, EDGE? Deshabilita la opción "Abrir vinculos en una pestaña nueva" tal como lo muestra ésta imagen.

The Tag Along 2 (2017) 1080p Latino

1.515 vistas

Información de The Tag Along 2 (2017) 1080p Latino

Datos de la película

  • Calidad: 1080p
  • Audio: Español Latino AC3 2.0 Capturado -Chino AC3 5.1 BLURAY
  • Subtitulos: Español Latino SRT- FORZADOS SRT
  • Resolución: 1920x804
  • Formato: MKV
  • Codec: H.264
  • Encoder: cinemaniahdd
  • Mediainfo: Clic para Mostrar Datos Ver
  • The Tag Along 2 (2017) 1080p Latino.mkv
    Format                      : Matroska
    Format version              : Version 4
    File size                   : 3.18 GiB
    Duration                    : 1 h 47 min
    Overall bit rate            : 4 241 kb/s
    Movie name                  : The Tag Along 2 (2017) - CinemaniaHDD.Net
    Encoded date                : UTC 2019-10-22 16:00:41
    Writing application         : mkvmerge v38.0.0 ('The Silent Type') 64-bit
    Writing library             : libebml v1.3.9 + libmatroska v1.5.2

    Video
    ID                          : 1
    Format                      : AVC
    Format/Info                 : Advanced Video Codec
    Format profile              : Main@L4
    Format settings             : CABAC / 5 Ref Frames
    Format settings, CABAC      : Yes
    Format settings, ReFrames   : 5 frames
    Codec ID                    : V_MPEG4/ISO/AVC
    Duration                    : 1 h 47 min
    Bit rate                    : 3 500 kb/s
    Width                       : 1 920 pixels
    Height                      : 804 pixels
    Display aspect ratio        : 2.40:1
    Frame rate mode             : Constant
    Frame rate                  : 24.000 FPS
    Color space                 : YUV
    Chroma subsampling          : 4:2:0
    Bit depth                   : 8 bits
    Scan type                   : Progressive
    Bits/(Pixel*Frame)          : 0.094
    Stream size                 : 2.65 GiB (83%)
    Title                       : CinemaniaHDD
    Writing library             : x264 core 157 r2935 545de2f
    Encoding settings           : cabac=1 / ref=5 / deblock=1:0:0 / analyse=0x1:0x111 / me=hex / subme=8 / psy=1 / psy_rd=1.00:0.00 / mixed_ref=1 / me_range=16 / chroma_me=1 / trellis=2 / 8x8dct=0 / cqm=0 / deadzone=21,11 / fast_pskip=1 / chroma_qp_offset=-2 / threads=25 / lookahead_threads=4 / sliced_threads=0 / nr=0 / decimate=1 / interlaced=0 / bluray_compat=0 / constrained_intra=0 / bframes=3 / b_pyramid=2 / b_adapt=1 / b_bias=0 / direct=3 / weightb=1 / open_gop=0 / weightp=2 / keyint=240 / keyint_min=24 / scenecut=40 / intra_refresh=0 / rc_lookahead=50 / rc=abr / mbtree=1 / bitrate=3500 / ratetol=1.0 / qcomp=0.60 / qpmin=0 / qpmax=69 / qpstep=4 / vbv_maxrate=20000 / vbv_bufsize=25000 / nal_hrd=none / filler=0 / ip_ratio=1.40 / aq=1:1.00
    Default                     : Yes
    Forced                      : No
    Color range                 : Limited
    Color primaries             : BT.709
    Transfer characteristics    : BT.709
    Matrix coefficients         : BT.709

    Audio #1
    ID                          : 2
    Format                      : AC-3
    Format/Info                 : Audio Coding 3
    Commercial name             : Dolby Digital
    Codec ID                    : A_AC3
    Duration                    : 1 h 47 min
    Bit rate mode               : Constant
    Bit rate                    : 256 kb/s
    Channel(s)                  : 2 channels
    Channel layout              : L R
    Sampling rate               : 48.0 kHz
    Frame rate                  : 31.250 FPS (1536 SPF)
    Bit depth                   : 16 bits
    Compression mode            : Lossy
    Delay relative to video     : -5 ms
    Stream size                 : 196 MiB (6%)
    Title                       : Español latino [CinemaniaHDD]
    Language                    : Spanish
    Service kind                : Complete Main
    Default                     : Yes
    Forced                      : No

    Audio #2
    ID                          : 3
    Format                      : AC-3
    Format/Info                 : Audio Coding 3
    Commercial name             : Dolby Digital
    Codec ID                    : A_AC3
    Duration                    : 1 h 47 min
    Bit rate mode               : Constant
    Bit rate                    : 448 kb/s
    Channel(s)                  : 6 channels
    Channel layout              : L R C LFE Ls Rs
    Sampling rate               : 48.0 kHz
    Frame rate                  : 31.250 FPS (1536 SPF)
    Bit depth                   : 16 bits
    Compression mode            : Lossy
    Delay relative to video     : -5 ms
    Stream size                 : 344 MiB (11%)
    Title                       : Chino [CinemaniaHDD]
    Language                    : Chinese
    Service kind                : Complete Main
    Default                     : No
    Forced                      : No

    Text #1
    ID                          : 4
    Format                      : UTF-8
    Codec ID                    : S_TEXT/UTF8
    Codec ID/Info               : UTF-8 Plain Text
    Duration                    : 1 s 426 ms
    Bit rate                    : 50 b/s
    Count of elements           : 1
    Stream size                 : 9.00 Bytes (0%)
    Title                       : Forzados [CinemaniaHDD]
    Language                    : Spanish
    Default                     : Yes
    Forced                      : Yes

    Text #2
    ID                          : 5
    Format                      : UTF-8
    Codec ID                    : S_TEXT/UTF8
    Codec ID/Info               : UTF-8 Plain Text
    Duration                    : 1 h 40 min
    Bit rate                    : 27 b/s
    Count of elements           : 820
    Stream size                 : 20.3 KiB (0%)
    Title                       : Español latino [CinemaniaHDD]
    Language                    : Spanish
    Default                     : No
    Forced                      : No

    Menu
    00:00:00.000                : :00:00:00.000
    00:08:29.625                : :00:08:29.625
    00:17:55.667                : :00:17:55.667
    00:24:59.208                : :00:24:59.208
    00:36:42.375                : :00:36:42.375
    00:44:10.458                : :00:44:10.458
    00:53:25.625                : :00:53:25.583
    01:03:05.875                : :01:03:05.875
    01:11:36.458                : :01:11:36.458
    01:19:45.958                : :01:19:45.958
    01:28:38.000                : :01:28:38.000
    01:38:39.417                : :01:38:39.417

     

  • Peso: 3.18 GiB

Sinopsis

Como trabajadora social, Shu-fen está acostumbrada a ver de todo. Sin embargo, su mundo se viene abajo cuando descubre que Ya-ting, su hija de quince años, se ha quedado embarazada. Las cosas empeoran aún más cuando Ya-ting desaparece sin dejar rastro, y esto conduce a a Shu-fen hasta los misterios que rodean la amenazadora figura de “la niña vestida de rojo”, una de las leyendas urbanas más conocidas y temidas en Taiwán.

Ficha técnica

Video trailer de la película

Enlaces de descarga

Rip de Bluray

Descargar The Tag Along 2 (2017) 1080p Latino




Aportes de DPeliculasHDmega la pass es:dpeliculashdmega.org Aportes de CinemaniaHD la pass es:cinemaniahdd.com
Guardado en : HD 1080p , Terror

Películas relacionadas

descargar The Tag Along 2 (2017) 1080p Latino 1080p 1080p gratis, The Tag Along 2 (2017) 1080p Latino 1080p mega 1 link, The Tag Along 2 (2017) 1080p Latino 1080p pelicula completa, descargar The Tag Along 2 (2017) 1080p Latino 1080p gratis en mega.

The Tag Along 2 (2017) 1080p Latino pelicula full hd, The Tag Along 2 (2017) 1080p Latino mega latino, The Tag Along 2 (2017) 1080p Latino 4k latino, The Tag Along 2 (2017) 1080p Latino pelicula completa, The Tag Along 2 (2017) 1080p Latino descargar gratis, descargar The Tag Along 2 (2017) 1080p Latino pelicula latino, The Tag Along 2 (2017) 1080p Latino 1 link mega, The Tag Along 2 (2017) 1080p Latino 1 link google drive, The Tag Along 2 (2017) 1080p Latino hd 1080p latino.
Comentarios 2
  • javier - 23 octubre, 2019

    porque no se pueden descargar las peliculas?
    cuando le doy al boton IR AL ENLACE no me lleva a ninguna pagina

    • CinemaniaHDD - 23 octubre, 2019

      intenta navegar en modo incógnito o pestaña privada, o borra datos de navegacion de esta web y cache