×

¿Problemas para descargar con Mozilla, EDGE? Deshabilita la opción "Abrir vinculos en una pestaña nueva" tal como lo muestra ésta imagen.

La Espada en la Piedra (1963) 1080p Latino

756 vistas

Información de La Espada en la Piedra (1963) 1080p Latino

Datos de la película

  • Calidad: 1080p
  • Audio: Español Latino AC3 5.1 BLURAY - Ingles AC3 5.1 BLURAY
  • Subtitulos: Español Latino SRT - Ingles SRT
  • Resolución: 1448x1080p
  • Formato: MKV
  • Codec: H.264
  • Encoder: CinefiloCool
  • Mediainfo: Clic para Mostrar Datos Ver
  • La Espada En La Piedra (1963) 1080p Latino-CMHDD.mkv
    Format                      : Matroska
    Format version              : Version 4
    File size                   : 2.55 GiB
    Duration                    : 1 h 19 min
    Overall bit rate            : 4 577 kb/s
    Movie name                  : La Espada En La Piedra (1963) CinemaniaHDD.Net
    Encoded date                : UTC 2020-03-17 02:30:47
    Writing application         : mkvmerge v42.0.0 ('Overtime') 64-bit
    Writing library             : libebml v1.3.10 + libmatroska v1.5.2
    Attachments                 : CINEMANIAHD.png

    Video
    ID                          : 1
    Format                      : AVC
    Format/Info                 : Advanced Video Codec
    Format profile              : High@L4.1
    Format settings             : CABAC / 5 Ref Frames
    Format settings, CABAC      : Yes
    Format settings, ReFrames   : 5 frames
    Codec ID                    : V_MPEG4/ISO/AVC
    Duration                    : 1 h 19 min
    Bit rate                    : 3 500 kb/s
    Width                       : 1 448 pixels
    Height                      : 1 080 pixels
    Display aspect ratio        : 4:3
    Frame rate mode             : Constant
    Frame rate                  : 23.976 (24000/1001) FPS
    Color space                 : YUV
    Chroma subsampling          : 4:2:0
    Bit depth                   : 8 bits
    Scan type                   : Progressive
    Bits/(Pixel*Frame)          : 0.093
    Stream size                 : 1.94 GiB (76%)
    Title                       : HD1080p [Bluray]
    Writing library             : x264 core 157 r2935 545de2f
    Encoding settings           : cabac=1 / ref=5 / deblock=1:1:1 / analyse=0x3:0x113 / me=hex / subme=8 / psy=1 / psy_rd=0.40:0.00 / mixed_ref=1 / me_range=16 / chroma_me=1 / trellis=2 / 8x8dct=1 / cqm=0 / deadzone=21,11 / fast_pskip=1 / chroma_qp_offset=-2 / threads=34 / lookahead_threads=5 / sliced_threads=0 / nr=0 / decimate=1 / interlaced=0 / bluray_compat=0 / constrained_intra=0 / bframes=5 / b_pyramid=2 / b_adapt=1 / b_bias=0 / direct=3 / weightb=1 / open_gop=0 / weightp=2 / keyint=240 / keyint_min=24 / scenecut=40 / intra_refresh=0 / rc_lookahead=50 / rc=abr / mbtree=1 / bitrate=3500 / ratetol=1.0 / qcomp=0.60 / qpmin=0 / qpmax=69 / qpstep=4 / vbv_maxrate=62500 / vbv_bufsize=78125 / nal_hrd=none / filler=0 / ip_ratio=1.40 / aq=1:0.60
    Default                     : Yes
    Forced                      : Yes
    Color range                 : Limited
    Color primaries             : BT.709
    Transfer characteristics    : BT.709
    Matrix coefficients         : BT.709

    Audio #1
    ID                          : 2
    Format                      : AC-3
    Format/Info                 : Audio Coding 3
    Commercial name             : Dolby Digital
    Codec ID                    : A_AC3
    Duration                    : 1 h 19 min
    Bit rate mode               : Constant
    Bit rate                    : 640 kb/s
    Channel(s)                  : 6 channels
    Channel layout              : L R C LFE Ls Rs
    Sampling rate               : 48.0 kHz
    Frame rate                  : 31.250 FPS (1536 SPF)
    Bit depth                   : 16 bits
    Compression mode            : Lossy
    Delay relative to video     : -5 ms
    Stream size                 : 364 MiB (14%)
    Title                       : AC3_5.1_Bluray_Esp
    Language                    : Spanish
    Service kind                : Complete Main
    Default                     : Yes
    Forced                      : Yes

    Audio #2
    ID                          : 3
    Format                      : AC-3
    Format/Info                 : Audio Coding 3
    Commercial name             : Dolby Digital
    Codec ID                    : A_AC3
    Duration                    : 1 h 19 min
    Bit rate mode               : Constant
    Bit rate                    : 448 kb/s
    Channel(s)                  : 6 channels
    Channel layout              : L R C LFE Ls Rs
    Sampling rate               : 48.0 kHz
    Frame rate                  : 31.250 FPS (1536 SPF)
    Bit depth                   : 16 bits
    Compression mode            : Lossy
    Delay relative to video     : -5 ms
    Stream size                 : 255 MiB (10%)
    Title                       : AC3_5.1_Bluray_Eng
    Language                    : English
    Service kind                : Complete Main
    Default                     : No
    Forced                      : No

    Text #1
    ID                          : 4
    Format                      : UTF-8
    Codec ID                    : S_TEXT/UTF8
    Codec ID/Info               : UTF-8 Plain Text
    Duration                    : 1 h 19 min
    Bit rate                    : 0 b/s
    Count of elements           : 5
    Stream size                 : 113 Bytes (0%)
    Title                       : Sub_Forzados
    Language                    : Spanish
    Default                     : Yes
    Forced                      : Yes

    Text #2
    ID                          : 5
    Format                      : UTF-8
    Codec ID                    : S_TEXT/UTF8
    Codec ID/Info               : UTF-8 Plain Text
    Duration                    : 1 h 19 min
    Bit rate                    : 59 b/s
    Count of elements           : 1072
    Stream size                 : 34.5 KiB (0%)
    Title                       : Sub_Esp
    Language                    : Spanish
    Default                     : No
    Forced                      : No

    Text #3
    ID                          : 6
    Format                      : UTF-8
    Codec ID                    : S_TEXT/UTF8
    Codec ID/Info               : UTF-8 Plain Text
    Duration                    : 1 h 17 min
    Bit rate                    : 62 b/s
    Count of elements           : 1107
    Stream size                 : 35.6 KiB (0%)
    Title                       : Sub_Eng
    Default                     : No
    Forced                      : No

    Menu
    00:00:00.000                : en:Opening Credits
    00:01:39.891                : en:"The Legend of the Sword in the Stone"
    00:08:26.797                : en:Wart Drops in for Tea
    00:12:46.474                : en:"Higitus Figitus"
    00:16:59.393                : en:At Sir Ector's Castle
    00:22:07.784                : en:Big News From London
    00:25:02.209                : en:A Magical Education for Wart
    00:30:25.532                : en:"That's What Makes the World Go Round"
    00:39:07.720                : en:A Medieval Assembly Line
    00:43:00.703                : en:"A Most Befuddling Thing"
    00:49:12.115                : en:Meanwhile, Back at the Castle...
    00:54:51.121                : en:Archimedes Takes Over Wart's Education
    00:56:45.693                : en:Wart Tries His Wings
    00:59:46.332                : en:Madam Mim
    01:04:05.591                : en:The Duel of the Wizards
    01:10:17.588                : en:Wart Is Made a Squire
    01:15:37.574                : en:King Arthur

  • Peso: 2.55 GiB

Sinopsis

Descargar La Espada en la Piedra (1963) 1080p Latino. Encantador relato de dibujos animados para los más pequeños sobre la leyenda del rey Arturo (aquí siendo todavía joven), el mago Merlín y la espada Excalibur. Aventuras mil, magia y fantasía para otro gran éxito de la Disney.

Nota de la Version:
Está el Bluray con relacion de aspecto  «1.75:1 / 16:9» (o full screen) pero se uso esta version que bien podria llamarse «Open Matte» ya que, aunque es «1.34:1 / 4:3» contiene mejor calidad y aun mas imagen como lo es en la version original de la pelicula, si quieres ver una comparacion de capturas; Click Aqui!!

Ficha técnica

Video trailer de la película

Enlaces de descarga

Rip de Bluray

Descargar La Espada en la Piedra (1963) 1080p Latino




Aportes de DPeliculasHDmega la pass es:dpeliculashdmega.org Aportes de CinemaniaHD la pass es:cinemaniahdd.com
Guardado en : Animación , Familia , HD 1080p

Películas relacionadas

  • Wire Room (2022) HD 1080p Latino

    Wire Room (2022) HD 1080p Latino

    2022
    Wire Room (2022) HD 1080p Latino

    1h 37m 2022

    Descargar Wire Room (2022) HD 1080p Latino. Mientras está de servicio en la sala de cables, un agente...

    Director: Matt Eskandari

    Género: Acción

    Actores: Texas Battle

  • Alarido (2022) HD 1080p Latino

    Alarido (2022) HD 1080p Latino

    2022
    Alarido (2022) HD 1080p Latino

    1h 29m 2022

    Descargar Alarido (2022) HD 1080p Latino. Una joven madre soltera es cautiva junto con sus dos hijos...

    Director: D.J. Caruso

    Género: HD 1080p

    Actores: Vincent Gallo

  • Borrego: Sal Del Camino (2022) HD 1080p Latino

    Borrego: Sal Del Camino (2022) HD 1080p Latino

    2022
    Borrego: Sal Del Camino (2022) HD 1080p Latino

    1h 42m 2022

    Descargar Borrego: Sal Del Camino (2022) HD 1080p Latino. Una joven botánica se traslada a un pequeño...

    Director: Jesse Harris

    Género: Crimen

    Actores: Olivia Trujillo

descargar La Espada en la Piedra (1963) 1080p Latino 1080p 1080p gratis, La Espada en la Piedra (1963) 1080p Latino 1080p mega 1 link, La Espada en la Piedra (1963) 1080p Latino 1080p pelicula completa, descargar La Espada en la Piedra (1963) 1080p Latino 1080p gratis en mega.

La Espada en la Piedra (1963) 1080p Latino pelicula full hd, La Espada en la Piedra (1963) 1080p Latino mega latino, La Espada en la Piedra (1963) 1080p Latino 4k latino, La Espada en la Piedra (1963) 1080p Latino pelicula completa, La Espada en la Piedra (1963) 1080p Latino descargar gratis, descargar La Espada en la Piedra (1963) 1080p Latino pelicula latino, La Espada en la Piedra (1963) 1080p Latino 1 link mega, La Espada en la Piedra (1963) 1080p Latino 1 link google drive, La Espada en la Piedra (1963) 1080p Latino hd 1080p latino.
Comentarios 0