×

¿Problemas para descargar con Mozilla, EDGE? Deshabilita la opción "Abrir vinculos en una pestaña nueva" tal como lo muestra ésta imagen.

Loco Por Ella (2010) REMUX 1080p Latino

255 vistas

Información de Loco Por Ella (2010) REMUX 1080p Latino

Datos de la película

  • Calidad: Full 1080p
  • Audio: Se especifica abajo de la Sinopsis
  • Subtitulos: Español Latino PGS - Ingles PGS
  • Resolución: 1920x1080p
  • Formato: MKV
  • Codec: H.264
  • Encoder: CinefiloCool
  • Mediainfo: Clic para Mostrar Datos Ver
  • Loco Por Ella (2010) REMUX 1080p Latino-CMHDD.mkv
    Format                      : Matroska
    Format version              : Version 4
    File size                   : 25.3 GiB
    Duration                    : 1 h 41 min
    Overall bit rate mode       : Variable
    Overall bit rate            : 35.7 Mb/s
    Movie name                  : The Switch (2010) CinemaniaHDD.Net
    Encoded date                : UTC 2022-04-05 06:23:32
    Writing application         : mkvmerge v56.1.0 ('My Friend') 64-bit
    Writing library             : libebml v1.4.2 + libmatroska v1.6.4
    Attachments                 : CINEMANIAHD.png

    Video
    ID                          : 1
    Format                      : VC-1
    Format profile              : Advanced@L3
    Codec ID                    : V_MS/VFW/FOURCC / WVC1
    Codec ID/Hint               : Microsoft
    Duration                    : 1 h 41 min
    Bit rate                    : 31.3 Mb/s
    Width                       : 1 920 pixels
    Height                      : 1 080 pixels
    Display aspect ratio        : 16:9
    Frame rate mode             : Constant
    Frame rate                  : 23.976 (24000/1001) FPS
    Color space                 : YUV
    Chroma subsampling          : 4:2:0
    Bit depth                   : 8 bits
    Scan type                   : Progressive
    Compression mode            : Lossy
    Bits/(Pixel*Frame)          : 0.629
    Stream size                 : 22.1 GiB (87%)
    Title                       : REMUX HD1080p [CinemaniaHDD]
    Default                     : Yes
    Forced                      : Yes

    Audio #1
    ID                          : 2
    Format                      : AC-3
    Format/Info                 : Audio Coding 3
    Commercial name             : Dolby Digital
    Codec ID                    : A_AC3
    Duration                    : 1 h 41 min
    Bit rate mode               : Constant
    Bit rate                    : 256 kb/s
    Channel(s)                  : 2 channels
    Channel layout              : L R
    Sampling rate               : 48.0 kHz
    Frame rate                  : 31.250 FPS (1536 SPF)
    Compression mode            : Lossy
    Stream size                 : 186 MiB (1%)
    Title                       : Español Latino ORG MMX [CinemaniaHDD]
    Language                    : Spanish
    Service kind                : Complete Main
    Default                     : Yes
    Forced                      : Yes

    Audio #2
    ID                          : 3
    Format                      : AC-3
    Format/Info                 : Audio Coding 3
    Commercial name             : Dolby Digital
    Codec ID                    : A_AC3
    Duration                    : 1 h 41 min
    Bit rate mode               : Constant
    Bit rate                    : 256 kb/s
    Channel(s)                  : 2 channels
    Channel layout              : L R
    Sampling rate               : 48.0 kHz
    Frame rate                  : 31.250 FPS (1536 SPF)
    Compression mode            : Lossy
    Stream size                 : 186 MiB (1%)
    Title                       : Español Latino REDUB VM [CinemaniaHDD]
    Language                    : Spanish
    Service kind                : Complete Main
    Default                     : No
    Forced                      : No

    Audio #3
    ID                          : 4
    Format                      : E-AC-3
    Format/Info                 : Enhanced AC-3
    Commercial name             : Dolby Digital Plus
    Codec ID                    : A_EAC3
    Duration                    : 1 h 41 min
    Bit rate mode               : Constant
    Bit rate                    : 224 kb/s
    Channel(s)                  : 2 channels
    Channel layout              : L R
    Sampling rate               : 48.0 kHz
    Frame rate                  : 31.250 FPS (1536 SPF)
    Compression mode            : Lossy
    Delay relative to video     : 561 ms
    Stream size                 : 162 MiB (1%)
    Title                       : Español Latino REDUB VM EAC3 [CinemaniaHDD]
    Language                    : Spanish
    Service kind                : Complete Main
    Default                     : No
    Forced                      : No

    Audio #4
    ID                          : 5
    Format                      : DTS XLL
    Format/Info                 : Digital Theater Systems
    Commercial name             : DTS-HD Master Audio
    Codec ID                    : A_DTS
    Duration                    : 1 h 41 min
    Bit rate mode               : Variable
    Bit rate                    : 3 689 kb/s
    Channel(s)                  : 6 channels
    Channel layout              : C L R Ls Rs LFE
    Sampling rate               : 48.0 kHz
    Frame rate                  : 93.750 FPS (512 SPF)
    Bit depth                   : 24 bits
    Compression mode            : Lossless
    Stream size                 : 2.61 GiB (10%)
    Title                       : Ingles [CinemaniaHDD]
    Language                    : English
    Default                     : No
    Forced                      : No

    Text #1
    ID                          : 6
    Format                      : PGS
    Muxing mode                 : zlib
    Codec ID                    : S_HDMV/PGS
    Codec ID/Info               : Picture based subtitle format used on BDs/HD-DVDs
    Duration                    : 1 h 35 min
    Bit rate                    : 39.6 kb/s
    Count of elements           : 3040
    Stream size                 : 27.2 MiB (0%)
    Title                       : Español-PGS [CinemaniaHDD]
    Language                    : Spanish
    Default                     : No
    Forced                      : No

    Text #2
    ID                          : 7
    Format                      : PGS
    Muxing mode                 : zlib
    Codec ID                    : S_HDMV/PGS
    Codec ID/Info               : Picture based subtitle format used on BDs/HD-DVDs
    Duration                    : 1 h 35 min
    Bit rate                    : 48.1 kb/s
    Count of elements           : 3202
    Stream size                 : 32.8 MiB (0%)
    Title                       : Ingles-PGS [CinemaniaHDD]
    Language                    : English
    Default                     : No
    Forced                      : No

    Text #3
    ID                          : 8
    Format                      : UTF-8
    Codec ID                    : S_TEXT/UTF8
    Codec ID/Info               : UTF-8 Plain Text
    Duration                    : 16 min 5 s
    Bit rate                    : 1 b/s
    Count of elements           : 4
    Stream size                 : 128 Bytes (0%)
    Title                       : Forzados-SRT [CinemaniaHDD]
    Language                    : Spanish
    Default                     : Yes
    Forced                      : Yes

    Text #4
    ID                          : 9
    Format                      : UTF-8
    Codec ID                    : S_TEXT/UTF8
    Codec ID/Info               : UTF-8 Plain Text
    Duration                    : 1 h 35 min
    Bit rate                    : 72 b/s
    Count of elements           : 1611
    Stream size                 : 51.1 KiB (0%)
    Title                       : Español-SRT [CinemaniaHDD]
    Language                    : Spanish
    Default                     : No
    Forced                      : No

    Menu
    00:00:00.000                : Conception
    00:06:39.691                : Buzzkill
    00:12:12.482                : Speaking Mommy
    00:16:56.933                : The Donor
    00:24:19.291                : The Switch
    00:29:14.753                : There And Back Again
    00:35:46.519                : Sebastian
    00:42:39.557                : Wildcards
    00:48:12.056                : Hijacked Pregnancy
    00:55:56.228                : The Roland Thing
    01:01:18.508                : Rocky Party
    01:04:53.306                : Neuroses
    01:08:43.328                : Once In A Lice Time
    01:16:36.634                : Act Crazy
    01:22:14.304                : The Seed Guy
    01:28:34.518                : The Race

  • Peso: 25.3 GiB

Sinopsis

Descargar Loco Por Ella (2010) REMUX 1080p Latino. Cuando Kassie (Jennifer Aniston) cumple los cuarenta decide no esperar más y recurre a la inseminación artificial para tener un bebé. Siete años más tarde, regresa a Nueva York y se reencuentra con su amigo Wally (Bateman), un hombre neurótico e inseguro, que, de manera inexplicable se siente fuertemente vinculado al hijo de Kassie, el pequeño Sebastian (Thomas Robinson), un niño con el que comparte algo más que sus múltiples manías y excentricidades. Basada en el relato «Baster», del novelista ganador del premio Pulitzer Jeffrey Eugenides, autor de «Las vírgenes suicidas».

Audio Español Latino AC3 2.0 Dub ORG Miramax – AC3 2.0 ReDub Videomax – Ingles DTS-HD 5.1 Bluray
Disponible Solo Para VIP!!!

Ficha técnica

Video trailer de la película

Enlaces de descarga

Rip de Bluray

Descargar Loco Por Ella (2010) REMUX 1080p Latino


Aportes de DPeliculasHDmega la pass es:dpeliculashdmega.org Aportes de CinemaniaHD la pass es:cinemaniahdd.com
Guardado en : Comedia , Drama , Remux , Romance

Películas relacionadas

descargar Loco Por Ella (2010) REMUX 1080p Latino Full 1080p 1080p gratis, Loco Por Ella (2010) REMUX 1080p Latino Full 1080p mega 1 link, Loco Por Ella (2010) REMUX 1080p Latino Full 1080p pelicula completa, descargar Loco Por Ella (2010) REMUX 1080p Latino Full 1080p gratis en mega.

Loco Por Ella (2010) REMUX 1080p Latino pelicula full hd, Loco Por Ella (2010) REMUX 1080p Latino mega latino, Loco Por Ella (2010) REMUX 1080p Latino 4k latino, Loco Por Ella (2010) REMUX 1080p Latino pelicula completa, Loco Por Ella (2010) REMUX 1080p Latino descargar gratis, descargar Loco Por Ella (2010) REMUX 1080p Latino pelicula latino, Loco Por Ella (2010) REMUX 1080p Latino 1 link mega, Loco Por Ella (2010) REMUX 1080p Latino 1 link google drive, Loco Por Ella (2010) REMUX 1080p Latino hd 1080p latino.
Comentarios 0