×

¿Problemas para descargar con Mozilla, EDGE? Deshabilita la opción "Abrir vinculos en una pestaña nueva" tal como lo muestra ésta imagen.

Loco Por Ella (2010) Full HD 1080p Latino-CMHDD

3.006 vistas

Información de Loco Por Ella (2010) Full HD 1080p Latino-CMHDD

Datos de la película

  • Calidad: Full 1080p
  • Audio: Se especifica abajo de la Sinopsis
  • Subtitulos: Español Latino PGS - Ingles PGS
  • Resolución: 1920x1080p
  • Formato: MKV
  • Codec: H.264
  • Encoder: CinefiloCool
  • Mediainfo: Clic para Mostrar Datos Ver
  • The.Switch.2010.Bluray.FullHD.1080p.x264.Multi.Latino-CC@CMHDD.mkv
    Format                      : Matroska
    Format version              : Version 4
    File size                   : 6.20 GiB
    Duration                    : 1 h 41 min
    Overall bit rate            : 8 756 kb/s
    Movie name                  : The Switch (2010) CinemaniaHDD.Net
    Encoded date                : UTC 2024-04-22 00:00:47
    Writing application         : mkvmerge v56.1.0 ('My Friend') 64-bit
    Writing library             : libebml v1.4.2 + libmatroska v1.6.4
    Attachments                 : CINEMANIAHD.png

    Video
    ID                          : 1
    Format                      : AVC
    Format/Info                 : Advanced Video Codec
    Format profile              : High@L4.1
    Format settings             : CABAC / 4 Ref Frames
    Format settings, CABAC      : Yes
    Format settings, Reference  : 4 frames
    Codec ID                    : V_MPEG4/ISO/AVC
    Duration                    : 1 h 41 min
    Bit rate                    : 6 470 kb/s
    Width                       : 1 920 pixels
    Height                      : 1 080 pixels
    Display aspect ratio        : 16:9
    Frame rate mode             : Constant
    Frame rate                  : 23.976 (24000/1001) FPS
    Color space                 : YUV
    Chroma subsampling          : 4:2:0
    Bit depth                   : 8 bits
    Scan type                   : Progressive
    Bits/(Pixel*Frame)          : 0.130
    Stream size                 : 4.58 GiB (74%)
    Title                       : Full HD1080p [CinemaniaHDD]
    Writing library             : x264 core 163 r3059 b684ebe0
    Encoding settings           : cabac=1 / ref=4 / deblock=1:0:0 / analyse=0x3:0x133 / me=tesa / subme=11 / psy=1 / psy_rd=1.00:0.00 / mixed_ref=1 / me_range=24 / chroma_me=1 / trellis=2 / 8x8dct=1 / cqm=0 / deadzone=21,11 / fast_pskip=0 / chroma_qp_offset=-2 / threads=24 / lookahead_threads=6 / sliced_threads=0 / nr=0 / decimate=1 / interlaced=0 / bluray_compat=0 / constrained_intra=0 / bframes=16 / b_pyramid=2 / b_adapt=2 / b_bias=0 / direct=3 / weightb=1 / open_gop=0 / weightp=2 / keyint=240 / keyint_min=24 / scenecut=40 / intra_refresh=0 / rc_lookahead=60 / rc=crf / mbtree=1 / crf=20.0 / qcomp=0.60 / qpmin=0 / qpmax=69 / qpstep=4 / vbv_maxrate=62500 / vbv_bufsize=78125 / crf_max=0.0 / nal_hrd=none / filler=0 / ip_ratio=1.40 / aq=1:1.00
    Default                     : Yes
    Forced                      : Yes
    Color range                 : Limited
    Color primaries             : BT.709
    Transfer characteristics    : BT.709
    Matrix coefficients         : BT.709

    Audio #1
    ID                          : 2
    Format                      : AC-3
    Format/Info                 : Audio Coding 3
    Commercial name             : Dolby Digital
    Codec ID                    : A_AC3
    Duration                    : 1 h 41 min
    Bit rate mode               : Constant
    Bit rate                    : 256 kb/s
    Channel(s)                  : 2 channels
    Channel layout              : L R
    Sampling rate               : 48.0 kHz
    Frame rate                  : 31.250 FPS (1536 SPF)
    Compression mode            : Lossy
    Stream size                 : 186 MiB (3%)
    Title                       : Español Latino ORG MMX [CinemaniaHDD]
    Language                    : Spanish
    Service kind                : Complete Main
    Default                     : Yes
    Forced                      : Yes

    Audio #2
    ID                          : 3
    Format                      : AC-3
    Format/Info                 : Audio Coding 3
    Commercial name             : Dolby Digital
    Codec ID                    : A_AC3
    Duration                    : 1 h 41 min
    Bit rate mode               : Constant
    Bit rate                    : 256 kb/s
    Channel(s)                  : 2 channels
    Channel layout              : L R
    Sampling rate               : 48.0 kHz
    Frame rate                  : 31.250 FPS (1536 SPF)
    Compression mode            : Lossy
    Stream size                 : 186 MiB (3%)
    Title                       : Español Latino REDUB VM [CinemaniaHDD]
    Language                    : Spanish
    Service kind                : Complete Main
    Default                     : No
    Forced                      : No

    Audio #3
    ID                          : 4
    Format                      : E-AC-3
    Format/Info                 : Enhanced AC-3
    Commercial name             : Dolby Digital Plus
    Codec ID                    : A_EAC3
    Duration                    : 1 h 41 min
    Bit rate mode               : Constant
    Bit rate                    : 224 kb/s
    Channel(s)                  : 2 channels
    Channel layout              : L R
    Sampling rate               : 48.0 kHz
    Frame rate                  : 31.250 FPS (1536 SPF)
    Compression mode            : Lossy
    Delay relative to video     : 561 ms
    Stream size                 : 162 MiB (3%)
    Title                       : Español Latino REDUB VM EAC3 [CinemaniaHDD]
    Language                    : Spanish
    Service kind                : Complete Main
    Default                     : No
    Forced                      : No

    Audio #4
    ID                          : 5
    Format                      : DTS
    Format/Info                 : Digital Theater Systems
    Codec ID                    : A_DTS
    Duration                    : 1 h 41 min
    Bit rate mode               : Constant
    Bit rate                    : 1 509 kb/s
    Channel(s)                  : 6 channels
    Channel layout              : C L R Ls Rs LFE
    Sampling rate               : 48.0 kHz
    Frame rate                  : 93.750 FPS (512 SPF)
    Bit depth                   : 24 bits
    Compression mode            : Lossy
    Stream size                 : 1.07 GiB (17%)
    Title                       : Ingles [CinemaniaHDD]
    Language                    : English
    Default                     : No
    Forced                      : No

    Text #1
    ID                          : 6
    Format                      : PGS
    Muxing mode                 : zlib
    Codec ID                    : S_HDMV/PGS
    Codec ID/Info               : Picture based subtitle format used on BDs/HD-DVDs
    Duration                    : 1 h 35 min
    Bit rate                    : 39.6 kb/s
    Count of elements           : 3040
    Stream size                 : 27.2 MiB (0%)
    Title                       : Español-PGS [CinemaniaHDD]
    Language                    : Spanish
    Default                     : No
    Forced                      : No

    Text #2
    ID                          : 7
    Format                      : PGS
    Muxing mode                 : zlib
    Codec ID                    : S_HDMV/PGS
    Codec ID/Info               : Picture based subtitle format used on BDs/HD-DVDs
    Duration                    : 1 h 35 min
    Bit rate                    : 48.1 kb/s
    Count of elements           : 3202
    Stream size                 : 32.8 MiB (1%)
    Title                       : Ingles-PGS [CinemaniaHDD]
    Language                    : English
    Default                     : No
    Forced                      : No

    Text #3
    ID                          : 8
    Format                      : UTF-8
    Codec ID                    : S_TEXT/UTF8
    Codec ID/Info               : UTF-8 Plain Text
    Duration                    : 16 min 5 s
    Bit rate                    : 1 b/s
    Count of elements           : 4
    Stream size                 : 128 Bytes (0%)
    Title                       : Forzados-SRT [CinemaniaHDD]
    Language                    : Spanish
    Default                     : Yes
    Forced                      : Yes

    Text #4
    ID                          : 9
    Format                      : UTF-8
    Codec ID                    : S_TEXT/UTF8
    Codec ID/Info               : UTF-8 Plain Text
    Duration                    : 1 h 35 min
    Bit rate                    : 72 b/s
    Count of elements           : 1611
    Stream size                 : 51.1 KiB (0%)
    Title                       : Español-SRT [CinemaniaHDD]
    Language                    : Spanish
    Default                     : No
    Forced                      : No

    Menu
    00:00:00.000                : Conception
    00:06:39.691                : Buzzkill
    00:12:12.482                : Speaking Mommy
    00:16:56.933                : The Donor
    00:24:19.291                : The Switch
    00:29:14.753                : There And Back Again
    00:35:46.519                : Sebastian
    00:42:39.557                : Wildcards
    00:48:12.056                : Hijacked Pregnancy
    00:55:56.228                : The Roland Thing
    01:01:18.508                : Rocky Party
    01:04:53.306                : Neuroses
    01:08:43.328                : Once In A Lice Time
    01:16:36.634                : Act Crazy
    01:22:14.304                : The Seed Guy
    01:28:34.518                : The Race

  • Peso: 6.20 GiB

Sinopsis

Descargar Loco Por Ella (2010) REMUX 1080p Latino-CMHDD. Cuando Kassie (Jennifer Aniston) cumple los cuarenta decide no esperar más y recurre a la inseminación artificial para tener un bebé. Siete años más tarde, regresa a Nueva York y se reencuentra con su amigo Wally (Bateman), un hombre neurótico e inseguro, que, de manera inexplicable se siente fuertemente vinculado al hijo de Kassie, el pequeño Sebastian (Thomas Robinson), un niño con el que comparte algo más que sus múltiples manías y excentricidades. Basada en el relato «Baster», del novelista ganador del premio Pulitzer Jeffrey Eugenides, autor de «Las vírgenes suicidas».

Audio Español Latino AC3 2.0 Dub ORG Miramax – AC3 2.0 ReDub Videomax – Ingles DTS 5.1 Bluray
RESUBIDA, Nuevo RIP version placebo!!!

Ficha técnica

Video trailer de la película

Enlaces de descarga

Rip de Bluray

Descargar Loco Por Ella (2010) Full HD 1080p Latino-CMHDD




Aportes de DPeliculasHDmega la pass es:dpeliculashdmega.org Aportes de CinemaniaHD la pass es:cinemaniahdd.com Aportes recientes:cinemaniahdd.net

Películas relacionadas

descargar Loco Por Ella (2010) Full HD 1080p Latino-CMHDD Full 1080p 1080p gratis, Loco Por Ella (2010) Full HD 1080p Latino-CMHDD Full 1080p mega 1 link, Loco Por Ella (2010) Full HD 1080p Latino-CMHDD Full 1080p pelicula completa, descargar Loco Por Ella (2010) Full HD 1080p Latino-CMHDD Full 1080p gratis en mega.

Loco Por Ella (2010) Full HD 1080p Latino-CMHDD pelicula full hd, Loco Por Ella (2010) Full HD 1080p Latino-CMHDD mega latino, Loco Por Ella (2010) Full HD 1080p Latino-CMHDD 4k latino, Loco Por Ella (2010) Full HD 1080p Latino-CMHDD pelicula completa, Loco Por Ella (2010) Full HD 1080p Latino-CMHDD descargar gratis, descargar Loco Por Ella (2010) Full HD 1080p Latino-CMHDD pelicula latino, Loco Por Ella (2010) Full HD 1080p Latino-CMHDD 1 link mega, Loco Por Ella (2010) Full HD 1080p Latino-CMHDD 1 link google drive, Loco Por Ella (2010) Full HD 1080p Latino-CMHDD hd 1080p latino.
Comentarios 0