The Swing of Things (2020) 4K UHD HDR Web-DL Latino

144 vistas
1 estrella2 estrellas3 estrellas4 estrellas5 estrellas (Ninguna valoración todavía)
Cargando...

Información de The Swing of Things (2020) 4K UHD HDR Web-DL Latino

Datos de la película

  • Calidad: WEBDL
  • Audio: Se especifica abajo de la Sinopsis
  • Subtitulos: Español Latino SRT - Ingles SRT
  • Resolución: 3840x1600p
  • Formato: MKV
  • Codec: HEVC
  • Encoder: CinefiloCool
  • Mediainfo: Clic para Mostrar Datos Ver
  • The Swing Of Things (2020) UHD HDR Web-DL Latino-CMHDD.mkv
    Format                      : Matroska
    Format version              : Version 4
    File size                   : 10.3 GiB
    Duration                    : 1 h 33 min
    Overall bit rate            : 15.8 Mb/s
    Movie name                  : The Swing Of Things (2020) CinemaniaHDD.Net
    Encoded date                : UTC 2020-07-07 16:25:04
    Writing application         : mkvmerge v46.0.0 ('No Deeper Escape') 64-bit
    Writing library             : libebml v1.3.10 + libmatroska v1.5.2
    Attachments                 : CINEMANIAHD.png

    Video
    ID                          : 1
    Format                      : HEVC
    Format/Info                 : High Efficiency Video Coding
    Format profile              : Main 10@L5@Main
    HDR format                  : SMPTE ST 2094 App 4, Version 0
    Codec ID                    : V_MPEGH/ISO/HEVC
    Duration                    : 1 h 33 min
    Bit rate                    : 14.8 Mb/s
    Width                       : 3 840 pixels
    Height                      : 1 600 pixels
    Display aspect ratio        : 2.40:1
    Frame rate mode             : Constant
    Frame rate                  : 23.976 (24000/1001) FPS
    Standard                    : NTSC
    Color space                 : YUV
    Chroma subsampling          : 4:2:0 (Type 2)
    Bit depth                   : 10 bits
    Bits/(Pixel*Frame)          : 0.100
    Stream size                 : 9.63 GiB (93%)
    Title                       : Web 2160p HDR [CinemaniaHDD]
    Language                    : English
    Default                     : Yes
    Forced                      : No
    Color range                 : Limited
    Color primaries             : BT.2020
    Transfer characteristics    : PQ
    Matrix coefficients         : BT.2020 non-constant
    Mastering display color pri : Display P3
    Mastering display luminance : min: 0.0001 cd/m2, max: 1000 cd/m2
    Maximum Content Light Level : 10000 cd/m2
    Maximum Frame-Average Light : 167 cd/m2

    Audio #1
    ID                          : 2
    ID in the original source m : 4353 (0x1101)
    Format                      : AC-3
    Format/Info                 : Audio Coding 3
    Commercial name             : Dolby Digital
    Codec ID                    : A_AC3
    Duration                    : 1 h 33 min
    Bit rate mode               : Constant
    Bit rate                    : 448 kb/s
    Channel(s)                  : 6 channels
    Channel layout              : L R C LFE Ls Rs
    Sampling rate               : 48.0 kHz
    Frame rate                  : 31.250 FPS (1536 SPF)
    Compression mode            : Lossy
    Stream size                 : 299 MiB (3%)
    Title                       : Español Latino [CinemaniaHDD]
    Language                    : Spanish
    Service kind                : Complete Main
    Default                     : Yes
    Forced                      : No
    Original source medium      : Blu-ray

    Audio #2
    ID                          : 3
    Format                      : E-AC-3
    Format/Info                 : Enhanced AC-3
    Commercial name             : Dolby Digital Plus
    Codec ID                    : A_EAC3
    Duration                    : 1 h 33 min
    Bit rate mode               : Constant
    Bit rate                    : 640 kb/s
    Channel(s)                  : 6 channels
    Channel layout              : L R C LFE Ls Rs
    Sampling rate               : 48.0 kHz
    Frame rate                  : 31.250 FPS (1536 SPF)
    Compression mode            : Lossy
    Stream size                 : 428 MiB (4%)
    Title                       : Ingles [CinemaniaHDD]
    Language                    : English
    Service kind                : Complete Main
    Default                     : No
    Forced                      : No

    Text #1
    ID                          : 4
    Format                      : UTF-8
    Codec ID                    : S_TEXT/UTF8
    Codec ID/Info               : UTF-8 Plain Text
    Duration                    : 1 h 25 min
    Bit rate                    : 1 b/s
    Count of elements           : 31
    Stream size                 : 1.03 KiB (0%)
    Title                       : Forzados-SRT [CinemaniaHDD]
    Language                    : Spanish
    Default                     : Yes
    Forced                      : No

    Text #2
    ID                          : 5
    Format                      : UTF-8
    Codec ID                    : S_TEXT/UTF8
    Codec ID/Info               : UTF-8 Plain Text
    Duration                    : 1 h 31 min
    Bit rate                    : 67 b/s
    Count of elements           : 1325
    Stream size                 : 45.1 KiB (0%)
    Title                       : Español-SRT [CinemaniaHDD]
    Language                    : Spanish
    Default                     : No
    Forced                      : No

    Text #3
    ID                          : 6
    Format                      : UTF-8
    Codec ID                    : S_TEXT/UTF8
    Codec ID/Info               : UTF-8 Plain Text
    Duration                    : 1 h 32 min
    Bit rate                    : 78 b/s
    Count of elements           : 1587
    Stream size                 : 52.8 KiB (0%)
    Title                       : Ingles-SRT [CinemaniaHDD]
    Language                    : English
    Default                     : No
    Forced                      : No

    Menu
    00:00:00.000                : en:Chapter 01
    00:05:36.085                : en:Chapter 02
    00:09:36.492                : en:Chapter 03
    00:15:25.883                : en:Chapter 04
    00:20:19.092                : en:Chapter 05
    00:26:51.818                : en:Chapter 06
    00:32:20.980                : en:Chapter 07
    00:39:52.223                : en:Chapter 08
    00:45:29.226                : en:Chapter 09
    00:51:11.443                : en:Chapter 10
    00:55:40.712                : en:Chapter 11
    01:02:24.741                : en:Chapter 12
    01:08:54.171                : en:Chapter 13
    01:15:10.255                : en:Chapter 14
    01:20:46.299                : en:Chapter 15
    01:27:58.773                : en:Chapter 16

  • Peso: 10.3 GiB

Sinopsis

Descargar The Swing of Things (2020) 4K UHD HDR Web-DL Latino. Tom y Laura viajan hacia el caribe para tener la boda de sus sueños en Bahamas, pero el mal clima desvía el avión en el que viajan . Entonces, con amigos, padres y el hermano sobre protector de Laura, aterrizan en un misterioso hotel en Jamaica, ¡que resulta ser un complejo para parejas swingers! ¿Puede la inocente pareja evitar la bebida, la hierba, los cuerpos desnudos y los delfines lujuriosos el tiempo suficiente para llegar al altar?

Audio Español Latino AC3 5.1 Bluray – Ingles EAC3 5.1 WebDL

Ficha técnica

  • Titulo original: The Swing of Things
  • Fecha de lanzamiento: 03-07-2020 (United States of America)
  • Director: Matt Shapira
  • Género: 4K HDR, 4K UHD, Comedia
  • Puntuación: 0.0 0 votos
  • Duración:
    1h 33m

Video trailer de la película

Enlaces de descarga

Rip de Bluray

Descargar The Swing of Things (2020) 4K UHD HDR Web-DL Latino




Aportes de DPeliculasHDmega la pass es:dpeliculashdmega.org Aportes de CinemaniaHD la pass es:cinemaniahdd.com
Guardado en : 4K HDR , 4K UHD , Comedia

Películas relacionadas

The Swing of Things (2020) 4K UHD HDR Web-DL Latino pelicula full hd, The Swing of Things (2020) 4K UHD HDR Web-DL Latino mega latino, The Swing of Things (2020) 4K UHD HDR Web-DL Latino 4k latino, The Swing of Things (2020) 4K UHD HDR Web-DL Latino pelicula completa, The Swing of Things (2020) 4K UHD HDR Web-DL Latino descargar gratis, descargar The Swing of Things (2020) 4K UHD HDR Web-DL Latino pelicula latino, The Swing of Things (2020) 4K UHD HDR Web-DL Latino 1 link mega, The Swing of Things (2020) 4K UHD HDR Web-DL Latino 1 link google drive, The Swing of Things (2020) 4K UHD HDR Web-DL Latino hd 1080p latino.
Comentarios 0