×

¿Problemas para descargar con Mozilla, EDGE? Deshabilita la opción "Abrir vinculos en una pestaña nueva" tal como lo muestra ésta imagen.

The Sweetest Christmas (2017) AMZN WEB-DL 1080p Latino

177 vistas

Información de The Sweetest Christmas (2017) AMZN WEB-DL 1080p Latino

Datos de la película

  • Calidad: 1080p
  • Audio: Español Latino AC3 2.0 WEB-DL - Ingles AC3 2.0 WEB-DL
  • Subtitulos: Español Latino SRT
  • Resolución: 1920x1080
  • Formato: MKV
  • Codec: H.264
  • Encoder: cinemaniahdd
  • Mediainfo: Clic para Mostrar Datos Ver
  • The Sweetest Christmas (2017) AMZN WEB-DL 1080p Latino [CNMNHDD]..mkv
    Format                      : Matroska
    Format version              : Version 4
    File size                   : 6.09 GiB
    Duration                    : 1 h 26 min
    Overall bit rate            : 10.1 Mb/s
    Movie name                  : The Sweetest Christmas (2017) - CinemaniaHDD.Net.
    Encoded date                : UTC 2021-11-02 00:08:08
    Writing application         : mkvmerge v56.1.0 ('My Friend') 64-bit
    Writing library             : libebml v1.4.2 + libmatroska v1.6.4

    Video
    ID                          : 1
    Format                      : AVC
    Format/Info                 : Advanced Video Codec
    Format profile              : High@L4
    Format settings             : CABAC / 4 Ref Frames
    Format settings, CABAC      : Yes
    Format settings, Reference  : 4 frames
    Codec ID                    : V_MPEG4/ISO/AVC
    Duration                    : 1 h 26 min
    Bit rate mode               : Constant
    Bit rate                    : 10 000 kb/s
    Width                       : 1 920 pixels
    Height                      : 1 080 pixels
    Display aspect ratio        : 16:9
    Frame rate mode             : Constant
    Frame rate                  : 23.976 (24000/1001) FPS
    Color space                 : YUV
    Chroma subsampling          : 4:2:0
    Bit depth                   : 8 bits
    Scan type                   : Progressive
    Bits/(Pixel*Frame)          : 0.201
    Stream size                 : 5.82 GiB (96%)
    Title                       : CinemaniaHDD
    Language                    : English
    Default                     : Yes
    Forced                      : No
    Color range                 : Limited
    Color primaries             : BT.709
    Transfer characteristics    : BT.709
    Matrix coefficients         : BT.709

    Audio #1
    ID                          : 2
    Format                      : E-AC-3
    Format/Info                 : Enhanced AC-3
    Commercial name             : Dolby Digital Plus
    Codec ID                    : A_EAC3
    Duration                    : 1 h 26 min
    Bit rate mode               : Constant
    Bit rate                    : 224 kb/s
    Channel(s)                  : 2 channels
    Channel layout              : L R
    Sampling rate               : 48.0 kHz
    Frame rate                  : 31.250 FPS (1536 SPF)
    Compression mode            : Lossy
    Stream size                 : 139 MiB (2%)
    Title                       : Español latino [CinemaniaHDD]
    Language                    : Spanish
    Service kind                : Complete Main
    Default                     : Yes
    Forced                      : No

    Audio #2
    ID                          : 3
    Format                      : E-AC-3
    Format/Info                 : Enhanced AC-3
    Commercial name             : Dolby Digital Plus
    Codec ID                    : A_EAC3
    Duration                    : 1 h 26 min
    Bit rate mode               : Constant
    Bit rate                    : 224 kb/s
    Channel(s)                  : 2 channels
    Channel layout              : L R
    Sampling rate               : 48.0 kHz
    Frame rate                  : 31.250 FPS (1536 SPF)
    Compression mode            : Lossy
    Stream size                 : 139 MiB (2%)
    Title                       : Inglés [CinemaniaHDD]
    Language                    : English
    Service kind                : Complete Main
    Default                     : No
    Forced                      : No

    Text
    ID                          : 4
    Format                      : UTF-8
    Codec ID                    : S_TEXT/UTF8
    Codec ID/Info               : UTF-8 Plain Text
    Duration                    : 1 h 24 min
    Bit rate                    : 87 b/s
    Count of elements           : 1508
    Stream size                 : 54.0 KiB (0%)
    Title                       : Español latino [CinemaniaHDD]
    Language                    : Spanish
    Default                     : No
    Forced                      : No

     

  • Peso: 6.09 GiB

Sinopsis

Mientras la pastelera Kylie Watson descubre que ha llegado a la final de la competición americana Gingerbread, su cabeza se llena de ideas acerca de que ésta es la publicidad que necesita para abrir su nuevo café. Solo hay un problema, el horno en el debe trabajar se rompe antes del concurso. Dispuesta a no perder esta oportunidad, contacta con Nick Mazannti, su ex-novio de la escuela culinaria, que se hace cargo de su pizzeria familiar, para que le permita usar su horno.

Ficha técnica

Video trailer de la película

Enlaces de descarga

Rip de Bluray

Descargar The Sweetest Christmas (2017) AMZN WEB-DL 1080p Latino




Aportes de DPeliculasHDmega la pass es:dpeliculashdmega.org Aportes de CinemaniaHD la pass es:cinemaniahdd.com
Guardado en : Película de TV , Romance

Películas relacionadas

  • Groundhog Day (1993) REMUX 4K HDR Latino – CMHDD

    Groundhog Day (1993) REMUX 4K HDR Latino – CMHDD

    1993
    Groundhog Day (1993) REMUX 4K HDR Latino – CMHDD

    1h 41m 1993

    Phil, hombre del tiempo de una cadena de televisión, es enviado un año más a Punxstawnwey, a cubrir...

    Director: Sam Hoffman

    Género: Comedia

    Actores: Willie Garson

  • La Princesa Prometida (1987) REMUX 1080p Latino

    La Princesa Prometida (1987) REMUX 1080p Latino

    1987
    La Princesa Prometida (1987) REMUX 1080p Latino

    1h 38m 1987

    Descargar La Princesa Prometida (1987) REMUX 1080p Latino. Después de buscar fortuna durante cinco años,...

    Director: Rob Reiner

    Género: Aventura

    Actores: Willy DeVille

  • La adorable revoltosa (1938) REMUX 1080p Latino

    La adorable revoltosa (1938) REMUX 1080p Latino

    1938
    La adorable revoltosa (1938) REMUX 1080p Latino

    1h 42m 1938

    Descargar La adorable revoltosa (1938) REMUX 1080p Latino. David Huxley (Cary Grant) es un paleontólogo...

    Director: Howard Hawks

    Género: Comedia

    Actores: William Benedict

  • Ophelia (2019) PLACEBO Full HD 1080p Latino

    Ophelia (2019) PLACEBO Full HD 1080p Latino

    2019
    Ophelia (2019) PLACEBO Full HD 1080p Latino

    1h 54m 2019

    Descargar Ophelia (2019) PLACEBO Full HD 1080p Latino. Ophelia, es una joven adolescente e impetuosa...

    Director: Mark Taylor

    Género: FULL 1080p Plateadas

    Actores: Veronika Strapková

  • Ophelia (2019) REMUX 1080p Latino

    Ophelia (2019) REMUX 1080p Latino

    2019
    Ophelia (2019) REMUX 1080p Latino

    1h 54m 2019

    Descargar Ophelia (2019) REMUX 1080p Latino. Ophelia, es una joven adolescente e impetuosa que reside...

    Director: Mark Taylor

    Género: Historia

    Actores: Veronika Strapková

descargar The Sweetest Christmas (2017) AMZN WEB-DL 1080p Latino 1080p 1080p gratis, The Sweetest Christmas (2017) AMZN WEB-DL 1080p Latino 1080p mega 1 link, The Sweetest Christmas (2017) AMZN WEB-DL 1080p Latino 1080p pelicula completa, descargar The Sweetest Christmas (2017) AMZN WEB-DL 1080p Latino 1080p gratis en mega.

The Sweetest Christmas (2017) AMZN WEB-DL 1080p Latino pelicula full hd, The Sweetest Christmas (2017) AMZN WEB-DL 1080p Latino mega latino, The Sweetest Christmas (2017) AMZN WEB-DL 1080p Latino 4k latino, The Sweetest Christmas (2017) AMZN WEB-DL 1080p Latino pelicula completa, The Sweetest Christmas (2017) AMZN WEB-DL 1080p Latino descargar gratis, descargar The Sweetest Christmas (2017) AMZN WEB-DL 1080p Latino pelicula latino, The Sweetest Christmas (2017) AMZN WEB-DL 1080p Latino 1 link mega, The Sweetest Christmas (2017) AMZN WEB-DL 1080p Latino 1 link google drive, The Sweetest Christmas (2017) AMZN WEB-DL 1080p Latino hd 1080p latino.
Comentarios 0