×

¿Problemas para descargar con Mozilla, EDGE? Deshabilita la opción "Abrir vinculos en una pestaña nueva" tal como lo muestra ésta imagen.

The Summer I Turned Pretty (2023) Segunda Temporada AMZN WEB-DL 1080p Latino

224 vistas

Información de The Summer I Turned Pretty (2023) Segunda Temporada AMZN WEB-DL 1080p Latino

Datos de la película

  • Calidad: 1080p
  • Audio: Español Latino AC3 5.1 WEB-DL - Ingles AC3 5.1 WEB-DL
  • Subtitulos: Español Latino SRT- FORZADOS SRT
  • Resolución: 1920x1080
  • Formato: MKV
  • Codec: H.264
  • Encoder: cinemaniahdd
  • Mediainfo: Clic para Mostrar Datos Ver
  • The Summer I Turned Pretty T02E01 AMZN WEB-DL 1080p Latino [CNMNHDD].mkv
    Format                      : Matroska
    Format version              : Version 4
    File size                   : 4.42 GiB
    Duration                    : 56 min 41 s
    Overall bit rate            : 11.2 Mb/s
    Movie name                  : The Summer I Turned Pretty S02E01 - Love Lost [1080p] - CinemaniaHDD.Net
    Encoded date                : UTC 2023-07-14 00:14:52
    Writing application         : mkvmerge v56.1.0 ('My Friend') 64-bit
    Writing library             : libebml v1.4.2 + libmatroska v1.6.4

    Video
    ID                          : 1
    Format                      : AVC
    Format/Info                 : Advanced Video Codec
    Format profile              : High@L4
    Format settings             : CABAC / 4 Ref Frames
    Format settings, CABAC      : Yes
    Format settings, Reference  : 4 frames
    Codec ID                    : V_MPEG4/ISO/AVC
    Duration                    : 56 min 41 s
    Bit rate mode               : Constant
    Bit rate                    : 9 251 kb/s
    Nominal bit rate            : 10 000 kb/s
    Width                       : 1 920 pixels
    Height                      : 960 pixels
    Display aspect ratio        : 2.000
    Frame rate mode             : Constant
    Frame rate                  : 23.976 (24000/1001) FPS
    Color space                 : YUV
    Chroma subsampling          : 4:2:0
    Bit depth                   : 8 bits
    Scan type                   : Progressive
    Bits/(Pixel*Frame)          : 0.209
    Stream size                 : 3.66 GiB (83%)
    Title                       : CinemaniaHDD
    Default                     : Yes
    Forced                      : No
    Color range                 : Limited
    Color primaries             : BT.709
    Transfer characteristics    : BT.709
    Matrix coefficients         : BT.709

    Audio #1
    ID                          : 2
    Format                      : AC-3
    Format/Info                 : Audio Coding 3
    Commercial name             : Dolby Digital
    Codec ID                    : A_AC3
    Duration                    : 56 min 41 s
    Bit rate mode               : Constant
    Bit rate                    : 640 kb/s
    Channel(s)                  : 6 channels
    Channel layout              : L R C LFE Ls Rs
    Sampling rate               : 48.0 kHz
    Frame rate                  : 31.250 FPS (1536 SPF)
    Compression mode            : Lossy
    Stream size                 : 260 MiB (6%)
    Title                       : Español Latino [CinemaniaHDD]
    Language                    : Spanish
    Service kind                : Complete Main
    Default                     : Yes
    Forced                      : No

    Audio #2
    ID                          : 3
    Format                      : E-AC-3
    Format/Info                 : Enhanced AC-3
    Commercial name             : Dolby Digital Plus
    Codec ID                    : A_EAC3
    Duration                    : 56 min 41 s
    Bit rate mode               : Constant
    Bit rate                    : 640 kb/s
    Channel(s)                  : 6 channels
    Channel layout              : L R C LFE Ls Rs
    Sampling rate               : 48.0 kHz
    Frame rate                  : 31.250 FPS (1536 SPF)
    Compression mode            : Lossy
    Stream size                 : 260 MiB (6%)
    Title                       : Español latino / E-AC3 [CinemaniaHDD]
    Language                    : Spanish
    Service kind                : Complete Main
    Default                     : No
    Forced                      : No

    Audio #3
    ID                          : 4
    Format                      : E-AC-3
    Format/Info                 : Enhanced AC-3
    Commercial name             : Dolby Digital Plus
    Codec ID                    : A_EAC3
    Duration                    : 56 min 41 s
    Bit rate mode               : Constant
    Bit rate                    : 640 kb/s
    Channel(s)                  : 6 channels
    Channel layout              : L R C LFE Ls Rs
    Sampling rate               : 48.0 kHz
    Frame rate                  : 31.250 FPS (1536 SPF)
    Compression mode            : Lossy
    Stream size                 : 260 MiB (6%)
    Title                       : Inglés [CinemaniaHDD]
    Language                    : English
    Service kind                : Complete Main
    Default                     : No
    Forced                      : No

    Text #1
    ID                          : 5
    Format                      : UTF-8
    Codec ID                    : S_TEXT/UTF8
    Codec ID/Info               : UTF-8 Plain Text
    Duration                    : 22 min 13 s
    Bit rate                    : 0 b/s
    Count of elements           : 3
    Stream size                 : 79.0 Bytes (0%)
    Title                       : Forzados [CinemaniaHDD]
    Language                    : Spanish
    Default                     : Yes
    Forced                      : Yes

    Text #2
    ID                          : 6
    Format                      : UTF-8
    Codec ID                    : S_TEXT/UTF8
    Codec ID/Info               : UTF-8 Plain Text
    Duration                    : 55 min 31 s
    Bit rate                    : 61 b/s
    Count of elements           : 789
    Stream size                 : 24.8 KiB (0%)
    Title                       : Español Latino [CinemaniaHDD]
    Language                    : Spanish
    Default                     : No
    Forced                      : No

    Text #3
    ID                          : 7
    Format                      : UTF-8
    Codec ID                    : S_TEXT/UTF8
    Codec ID/Info               : UTF-8 Plain Text
    Duration                    : 55 min 20 s
    Bit rate                    : 91 b/s
    Count of elements           : 1182
    Stream size                 : 37.0 KiB (0%)
    Title                       : Inglés [CinemaniaHDD]
    Language                    : English
    Default                     : No
    Forced                      : No

     

  • Peso: 4.42 GiB Aprox ---- 33 GiB in 8 Chapters.

Sinopsis

Belly solía contar los días hasta que pudiera regresar a Cousins ​​Beach, pero con Conrad y Jeremiah peleando por su corazón y el regreso del cáncer de Susannah, no está segura de que el verano vuelva a ser lo mismo. Cuando una visitante inesperada amenaza el futuro de la amada casa de Susannah, Belly tiene que reunir al equipo y decidir de una vez por todas dónde está su corazón.

Ficha técnica

Video trailer de la película

Enlaces de descarga

Rip de Bluray

Descargar The Summer I Turned Pretty (2023) Segunda Temporada AMZN WEB-DL 1080p Latino




Aportes de DPeliculasHDmega la pass es:dpeliculashdmega.org Aportes de CinemaniaHD la pass es:cinemaniahdd.com Aportes recientes:cinemaniahdd.net
Guardado en : Drama , Series

Películas relacionadas

descargar The Summer I Turned Pretty (2023) Segunda Temporada AMZN WEB-DL 1080p Latino 1080p 1080p gratis, The Summer I Turned Pretty (2023) Segunda Temporada AMZN WEB-DL 1080p Latino 1080p mega 1 link, The Summer I Turned Pretty (2023) Segunda Temporada AMZN WEB-DL 1080p Latino 1080p serie completa, descargar The Summer I Turned Pretty (2023) Segunda Temporada AMZN WEB-DL 1080p Latino 1080p gratis en mega.

The Summer I Turned Pretty (2023) Segunda Temporada AMZN WEB-DL 1080p Latino pelicula full hd, The Summer I Turned Pretty (2023) Segunda Temporada AMZN WEB-DL 1080p Latino mega latino, The Summer I Turned Pretty (2023) Segunda Temporada AMZN WEB-DL 1080p Latino 4k latino, The Summer I Turned Pretty (2023) Segunda Temporada AMZN WEB-DL 1080p Latino pelicula completa, The Summer I Turned Pretty (2023) Segunda Temporada AMZN WEB-DL 1080p Latino descargar gratis, descargar The Summer I Turned Pretty (2023) Segunda Temporada AMZN WEB-DL 1080p Latino pelicula latino, The Summer I Turned Pretty (2023) Segunda Temporada AMZN WEB-DL 1080p Latino 1 link mega, The Summer I Turned Pretty (2023) Segunda Temporada AMZN WEB-DL 1080p Latino 1 link google drive, The Summer I Turned Pretty (2023) Segunda Temporada AMZN WEB-DL 1080p Latino hd 1080p latino.
Comentarios 0