×

¿Problemas para descargar con Mozilla, EDGE? Deshabilita la opción "Abrir vinculos en una pestaña nueva" tal como lo muestra ésta imagen.

The Summer I Turned Pretty (2022) Primera Temporada AMZN WEB-DL 1080p Latino

315 vistas

Información de The Summer I Turned Pretty (2022) Primera Temporada AMZN WEB-DL 1080p Latino

Datos de la película

  • Calidad: 1080p
  • Audio: Español Latino AC3 5.1 WEB-DL - Ingles AC3 5.1 WEB-DL
  • Subtitulos: Español Latino SRT- FORZADOS SRT
  • Resolución: 1920x1080
  • Formato: MKV
  • Codec: H.264
  • Encoder: cinemaniahdd
  • Mediainfo: Clic para Mostrar Datos Ver
  • The Summer I Turned Pretty T01E01 AMZN WEB-DL 1080p Latino [CNMNHDD].mkv
    Format                      : Matroska
    Format version              : Version 4
    File size                   : 3.26 GiB
    Duration                    : 45 min 8 s
    Overall bit rate            : 10.3 Mb/s
    Movie name                  : The Summer I Turned Pretty S01E01 - Summer House [1080p] [CBR]
    Encoded date                : UTC 2022-06-17 02:46:15
    Writing application         : mkvmerge v56.1.0 ('My Friend') 64-bit
    Writing library             : libebml v1.4.2 + libmatroska v1.6.4

    Video
    ID                          : 1
    Format                      : AVC
    Format/Info                 : Advanced Video Codec
    Format profile              : High@L4
    Format settings             : CABAC / 4 Ref Frames
    Format settings, CABAC      : Yes
    Format settings, Reference  : 4 frames
    Codec ID                    : V_MPEG4/ISO/AVC
    Duration                    : 45 min 8 s
    Bit rate mode               : Constant
    Bit rate                    : 8 409 kb/s
    Nominal bit rate            : 10 000 kb/s
    Width                       : 1 920 pixels
    Height                      : 1 080 pixels
    Display aspect ratio        : 16:9
    Frame rate mode             : Constant
    Frame rate                  : 23.976 (24000/1001) FPS
    Color space                 : YUV
    Chroma subsampling          : 4:2:0
    Bit depth                   : 8 bits
    Scan type                   : Progressive
    Bits/(Pixel*Frame)          : 0.169
    Stream size                 : 2.65 GiB (81%)
    Title                       : CinemaniaHDD
    Default                     : Yes
    Forced                      : No
    Color range                 : Limited
    Color primaries             : BT.709
    Transfer characteristics    : BT.709
    Matrix coefficients         : BT.709

    Audio #1
    ID                          : 2
    Format                      : AC-3
    Format/Info                 : Audio Coding 3
    Commercial name             : Dolby Digital
    Codec ID                    : A_AC3
    Duration                    : 45 min 8 s
    Bit rate mode               : Constant
    Bit rate                    : 640 kb/s
    Channel(s)                  : 6 channels
    Channel layout              : L R C LFE Ls Rs
    Sampling rate               : 48.0 kHz
    Frame rate                  : 31.250 FPS (1536 SPF)
    Compression mode            : Lossy
    Stream size                 : 207 MiB (6%)
    Title                       : Español latino [CinemaniaHDD]
    Language                    : Spanish
    Service kind                : Complete Main
    Default                     : Yes
    Forced                      : No

    Audio #2
    ID                          : 3
    Format                      : E-AC-3
    Format/Info                 : Enhanced AC-3
    Commercial name             : Dolby Digital Plus
    Codec ID                    : A_EAC3
    Duration                    : 45 min 8 s
    Bit rate mode               : Constant
    Bit rate                    : 640 kb/s
    Channel(s)                  : 6 channels
    Channel layout              : L R C LFE Ls Rs
    Sampling rate               : 48.0 kHz
    Frame rate                  : 31.250 FPS (1536 SPF)
    Compression mode            : Lossy
    Stream size                 : 207 MiB (6%)
    Title                       : Español latino / E-AC3 [CinemaniaHDD]
    Language                    : Spanish
    Service kind                : Complete Main
    Default                     : No
    Forced                      : No

    Audio #3
    ID                          : 4
    Format                      : E-AC-3
    Format/Info                 : Enhanced AC-3
    Commercial name             : Dolby Digital Plus
    Codec ID                    : A_EAC3
    Duration                    : 45 min 8 s
    Bit rate mode               : Constant
    Bit rate                    : 640 kb/s
    Channel(s)                  : 6 channels
    Channel layout              : L R C LFE Ls Rs
    Sampling rate               : 48.0 kHz
    Frame rate                  : 31.250 FPS (1536 SPF)
    Compression mode            : Lossy
    Stream size                 : 207 MiB (6%)
    Title                       : Inglés [CinemaniaHDD]
    Language                    : English
    Service kind                : Complete Main
    Default                     : No
    Forced                      : No

    Text #1
    ID                          : 5
    Format                      : UTF-8
    Codec ID                    : S_TEXT/UTF8
    Codec ID/Info               : UTF-8 Plain Text
    Duration                    : 40 min 12 s
    Bit rate                    : 1 b/s
    Count of elements           : 22
    Stream size                 : 577 Bytes (0%)
    Title                       : Forzados [CinemaniaHDD]
    Language                    : Spanish
    Default                     : No
    Forced                      : Yes

    Text #2
    ID                          : 6
    Format                      : UTF-8
    Codec ID                    : S_TEXT/UTF8
    Codec ID/Info               : UTF-8 Plain Text
    Duration                    : 43 min 59 s
    Bit rate                    : 57 b/s
    Count of elements           : 627
    Stream size                 : 18.6 KiB (0%)
    Title                       : Español latino [CinemaniaHDD]
    Language                    : Spanish
    Default                     : No
    Forced                      : No

    Menu
    00:00:00.000                : Amazon Original
    00:00:04.000                : Title Sequence
    00:00:14.000                : Scene 3
    00:02:00.000                : Scene 4
    00:03:43.000                : Scene 5
    00:05:25.000                : Scene 6
    00:07:38.000                : Scene 7
    00:08:17.000                : Scene 8
    00:10:02.000                : Scene 9
    00:11:24.000                : Scene 10
    00:12:53.000                : Scene 11
    00:13:19.000                : Scene 12
    00:14:42.000                : Scene 13
    00:16:02.000                : Scene 14
    00:18:36.000                : Scene 15
    00:19:27.000                : Scene 16
    00:22:31.000                : Scene 17
    00:24:32.000                : Scene 18
    00:27:31.000                : Scene 19
    00:30:18.000                : Scene 20
    00:36:16.000                : Scene 21
    00:40:40.000                : Scene 22
    00:42:18.000                : End Credits

     

  • Peso: 3.26 GiB GiB Aprox ---- 23 GiB in 7 Chapters.

Sinopsis

Una nueva serie basada en el libro más vendido según el New York Times. Cada verano, la familia de Belly va a la casa de playa de los Fisher en Cousins. Todos los veranos son iguales… hasta que Belly cumple 16. Habrá relaciones a prueba, verdades dolorosas, y Belly cambiará para siempre. El verano del primer amor, el primer desamor y crecimiento, el verano en que los chicos se fijarán en ella.

Ficha técnica

Video trailer de la película

Enlaces de descarga

Rip de Bluray

Descargar The Summer I Turned Pretty (2022) Primera Temporada AMZN WEB-DL 1080p Latino




Aportes de DPeliculasHDmega la pass es:dpeliculashdmega.org Aportes de CinemaniaHD la pass es:cinemaniahdd.com
Guardado en : Drama

Películas relacionadas

  • El discurso del Rey (2010) 1080p Latino

    El discurso del Rey (2010) 1080p Latino

    2010
    El discurso del Rey (2010) 1080p Latino

    1h 58m 2010

    Descargar El discurso del Rey (2010) 1080p Latino. El duque de York se convirtió en rey de Gran Bretaña...

    Director: Tom Hooper

    Género: Drama

    Actores: Tony Earnshaw

  • El discurso del Rey (2010) Full HD 1080p Latino

    El discurso del Rey (2010) Full HD 1080p Latino

    2010
    El discurso del Rey (2010) Full HD 1080p Latino

    1h 58m 2010

    Descargar El discurso del Rey (2010) Full HD 1080p Latino. El duque de York se convirtió en rey de Gran...

    Director: Tom Hooper

    Género: Drama

    Actores: Tony Earnshaw

  • El discurso del Rey (2010) REMUX 1080p Latino

    El discurso del Rey (2010) REMUX 1080p Latino

    2010
    El discurso del Rey (2010) REMUX 1080p Latino

    1h 58m 2010

    Descargar El discurso del Rey (2010) REMUX 1080p Latino. El duque de York se convirtió en rey de Gran...

    Director: Tom Hooper

    Género: Drama

    Actores: Tony Earnshaw

  • 8 Mile (2002) REMUX 4K HDR Latino – CMHDD

    8 Mile (2002) REMUX 4K HDR Latino – CMHDD

    2002
    8 Mile (2002) REMUX 4K HDR Latino – CMHDD

    1h 50m 2002

    Detroit, 1995. La promesa de potencia industrial se ha transformado en un hervidero de conflictos económicos...

    Director: Michael J. Moore

    Género: Drama

    Actores: Xzibit

descargar The Summer I Turned Pretty (2022) Primera Temporada AMZN WEB-DL 1080p Latino 1080p 1080p gratis, The Summer I Turned Pretty (2022) Primera Temporada AMZN WEB-DL 1080p Latino 1080p mega 1 link, The Summer I Turned Pretty (2022) Primera Temporada AMZN WEB-DL 1080p Latino 1080p pelicula completa, descargar The Summer I Turned Pretty (2022) Primera Temporada AMZN WEB-DL 1080p Latino 1080p gratis en mega.

The Summer I Turned Pretty (2022) Primera Temporada AMZN WEB-DL 1080p Latino pelicula full hd, The Summer I Turned Pretty (2022) Primera Temporada AMZN WEB-DL 1080p Latino mega latino, The Summer I Turned Pretty (2022) Primera Temporada AMZN WEB-DL 1080p Latino 4k latino, The Summer I Turned Pretty (2022) Primera Temporada AMZN WEB-DL 1080p Latino pelicula completa, The Summer I Turned Pretty (2022) Primera Temporada AMZN WEB-DL 1080p Latino descargar gratis, descargar The Summer I Turned Pretty (2022) Primera Temporada AMZN WEB-DL 1080p Latino pelicula latino, The Summer I Turned Pretty (2022) Primera Temporada AMZN WEB-DL 1080p Latino 1 link mega, The Summer I Turned Pretty (2022) Primera Temporada AMZN WEB-DL 1080p Latino 1 link google drive, The Summer I Turned Pretty (2022) Primera Temporada AMZN WEB-DL 1080p Latino hd 1080p latino.
Comentarios 0