×

¿Problemas para descargar con Mozilla, EDGE? Deshabilita la opción "Abrir vinculos en una pestaña nueva" tal como lo muestra ésta imagen.

The Sum of All Fears (2002) REMUX 4K HDR Latino – CMHDD

168 vistas

Información de The Sum of All Fears (2002) REMUX 4K HDR Latino – CMHDD

Datos de la película

  • Calidad: 4K HDR
  • Audio: Español Latino AC3 5.1 BLURAY - Ingles DTS 5.1 BLURAY
  • Subtitulos: Español Latino PGS
  • Resolución: 3840x2160p
  • Formato: MKV
  • Codec: H.264
  • Encoder: Dracarys
  • Mediainfo: Clic para Mostrar Datos Ver
  • Format                      : Matroska
    Format version              : Version 4
    File size                   : 49.1 GiB
    Duration                    : 2 h 3 min
    Overall bit rate mode       : Variable
    Overall bit rate            : 56.8 Mb/s
    Movie name                  : The Sum of All Fears (2002) REMUX 4K HDR Latino - CMHDD
    Encoded date                : UTC 2023-08-09 01:12:15
    Writing application         : mkvmerge v47.0.0 ('Black Flag') 64-bit
    Writing library             : libebml v1.3.10 + libmatroska v1.5.2

    Video
    ID                          : 1
    ID in the original source m : 4113 (0x1011)
    Format                      : HEVC
    Format/Info                 : High Efficiency Video Coding
    Format profile              : Main 10@L5.1@High
    HDR format                  : SMPTE ST 2086, HDR10 compatible
    Codec ID                    : V_MPEGH/ISO/HEVC
    Duration                    : 2 h 3 min
    Bit rate                    : 52.0 Mb/s
    Width                       : 3 840 pixels
    Height                      : 2 160 pixels
    Display aspect ratio        : 16:9
    Frame rate mode             : Constant
    Frame rate                  : 23.976 (24000/1001) FPS
    Color space                 : YUV
    Chroma subsampling          : 4:2:0 (Type 2)
    Bit depth                   : 10 bits
    Bits/(Pixel*Frame)          : 0.262
    Stream size                 : 44.9 GiB (92%)
    Language                    : English
    Default                     : No
    Forced                      : No
    Color range                 : Limited
    Color primaries             : BT.2020
    Transfer characteristics    : PQ
    Matrix coefficients         : BT.2020 non-constant
    Mastering display color pri : Display P3
    Mastering display luminance : min: 0.0001 cd/m2, max: 1000 cd/m2
    Original source medium      : Blu-ray

    Audio #1
    ID                          : 2
    Format                      : DTS XLL
    Format/Info                 : Digital Theater Systems
    Commercial name             : DTS-HD Master Audio
    Codec ID                    : A_DTS
    Duration                    : 2 h 3 min
    Bit rate mode               : Variable
    Bit rate                    : 4 162 kb/s
    Channel(s)                  : 6 channels
    Channel layout              : C L R Ls Rs LFE
    Sampling rate               : 48.0 kHz
    Frame rate                  : 93.750 FPS (512 SPF)
    Bit depth                   : 24 bits
    Compression mode            : Lossless
    Stream size                 : 3.60 GiB (7%)
    Title                       : DTS-HD MA 5.1
    Language                    : English
    Default                     : No
    Forced                      : No

    Audio #2
    ID                          : 3
    ID in the original source m : 4356 (0x1104)
    Format                      : AC-3
    Format/Info                 : Audio Coding 3
    Commercial name             : Dolby Digital
    Codec ID                    : A_AC3
    Duration                    : 2 h 3 min
    Bit rate mode               : Constant
    Bit rate                    : 640 kb/s
    Channel(s)                  : 6 channels
    Channel layout              : L R C LFE Ls Rs
    Sampling rate               : 48.0 kHz
    Frame rate                  : 31.250 FPS (1536 SPF)
    Compression mode            : Lossy
    Delay relative to video     : 1 s 1 ms
    Stream size                 : 566 MiB (1%)
    Title                       : DD 5.1
    Language                    : Spanish
    Service kind                : Complete Main
    Default                     : Yes
    Forced                      : No
    Original source medium      : Blu-ray

    Text #1
    ID                          : 4
    ID in the original source m : 4773 (0x12A5)
    Format                      : PGS
    Muxing mode                 : zlib
    Codec ID                    : S_HDMV/PGS
    Codec ID/Info               : Picture based subtitle format used on BDs/HD-DVDs
    Duration                    : 2 h 2 min
    Bit rate                    : 28.4 kb/s
    Frame rate                  : 0.354 FPS
    Count of elements           : 2606
    Stream size                 : 24.9 MiB (0%)
    Language                    : Spanish
    Default                     : No
    Forced                      : No
    Original source medium      : Blu-ray

    Text #2
    ID                          : 5
    ID in the original source m : 4773 (0x12A5)
    Format                      : PGS
    Muxing mode                 : zlib
    Codec ID                    : S_HDMV/PGS
    Codec ID/Info               : Picture based subtitle format used on BDs/HD-DVDs
    Duration                    : 1 h 49 min
    Bit rate                    : 2 522 b/s
    Frame rate                  : 0.039 FPS
    Count of elements           : 256
    Stream size                 : 1.97 MiB (0%)
    Language                    : Spanish
    Default                     : No
    Forced                      : No
    Original source medium      : Blu-ray

    Menu
    00:00:00.000                : en:Chapter 01
    00:04:51.916                : en:Chapter 02
    00:13:01.280                : en:Chapter 03
    00:24:07.529                : en:Chapter 04
    00:30:06.888                : en:Chapter 05
    00:36:33.649                : en:Chapter 06
    00:48:07.968                : en:Chapter 07
    01:01:50.331                : en:Chapter 08
    01:06:21.143                : en:Chapter 09
    01:13:18.018                : en:Chapter 10
    01:20:13.558                : en:Chapter 11
    01:26:06.494                : en:Chapter 12
    01:33:54.086                : en:Chapter 13
    01:42:03.408                : en:Chapter 14
    01:47:24.020                : en:Chapter 15
    01:51:40.652                : en:Chapter 16
    01:57:18.573                : en:Chapter 17

  • Peso: 49.1 GiB

Sinopsis

En 1973, el ejército de Israel perdió un caza con un misil nuclear, abatido por fuerzas enemigas. No se volvió a saber del misil. 29 años después, un viejo árabe lo encuentra semienterrado y abandonado en el Golán, y se lo vende a un mercenario con conexiones con unos potentados neonazis. Al mismo tiempo, en Rusia, se produce un nuevo cambio de presidente, y el nuevo mandatario, apenas conocido, no despierta plena confianza para la CIA… Nueva y trepidante aventura del agente de la CIA Jack Ryan (interpretado ahora por Ben Affleck y al que anteriormente habían dado vida Alec Baldwin y Harrison Ford). La película tuvo su polémica al tratar el tema del terrorismo de forma apocalíptica cuando todavía estaba reciente el recuerdo del 11-S. Además, en la novela de Tom Clancy los terroristas eran fanáticos musulmanes, pero los productores decidieron «sustituirlos» por terroristas neonazis en la adaptación cinematográfica.

Ficha técnica

Video trailer de la película

Enlaces de descarga

Rip de Bluray

Descargar The Sum of All Fears (2002) REMUX 4K HDR Latino – CMHDD


Aportes de DPeliculasHDmega la pass es:dpeliculashdmega.org Aportes de CinemaniaHD la pass es:cinemaniahdd.com Aportes recientes:cinemaniahdd.net
Guardado en : Acción , Drama , Suspenso

Películas relacionadas

descargar The Sum of All Fears (2002) REMUX 4K HDR Latino – CMHDD 4K HDR 1080p gratis, The Sum of All Fears (2002) REMUX 4K HDR Latino – CMHDD 4K HDR mega 1 link, The Sum of All Fears (2002) REMUX 4K HDR Latino – CMHDD 4K HDR pelicula completa, descargar The Sum of All Fears (2002) REMUX 4K HDR Latino – CMHDD 4K HDR gratis en mega.

The Sum of All Fears (2002) REMUX 4K HDR Latino – CMHDD pelicula full hd, The Sum of All Fears (2002) REMUX 4K HDR Latino – CMHDD mega latino, The Sum of All Fears (2002) REMUX 4K HDR Latino – CMHDD 4k latino, The Sum of All Fears (2002) REMUX 4K HDR Latino – CMHDD pelicula completa, The Sum of All Fears (2002) REMUX 4K HDR Latino – CMHDD descargar gratis, descargar The Sum of All Fears (2002) REMUX 4K HDR Latino – CMHDD pelicula latino, The Sum of All Fears (2002) REMUX 4K HDR Latino – CMHDD 1 link mega, The Sum of All Fears (2002) REMUX 4K HDR Latino – CMHDD 1 link google drive, The Sum of All Fears (2002) REMUX 4K HDR Latino – CMHDD hd 1080p latino.
Comentarios 0