The Sugarland Express (1974) REMUX 1080p Latino – CMHDD

25 vistas
1 estrella2 estrellas3 estrellas4 estrellas5 estrellas (Ninguna valoración todavía)
Cargando...

Información de The Sugarland Express (1974) REMUX 1080p Latino – CMHDD

Datos de la película

  • Calidad: Full 1080p
  • Audio: Español Latino DTS 2.0 BLURAY - Ingles DTS 2.0 BLURAY
  • Subtitulos: Español Latino PGS
  • Resolución: 1920x1080p
  • Formato: MKV
  • Codec: H.264
  • Encoder: Dracarys
  • Mediainfo: Clic para Mostrar Datos Ver
  • Format                      : Matroska
    Format version              : Version 4
    File size                   : 29.5 GiB
    Duration                    : 1 h 49 min
    Overall bit rate mode       : Variable
    Overall bit rate            : 38.4 Mb/s
    Movie name                  : The Sugarland Express (1974) REMUX 1080p Latino - CMHDD
    Encoded date                : UTC 2021-09-17 21:49:16
    Writing application         : mkvmerge v17.0.0 ('Be Ur Friend') 64-bit
    Writing library             : libebml v1.3.5 + libmatroska v1.4.8

    Video
    ID                          : 1
    Format                      : AVC
    Format/Info                 : Advanced Video Codec
    Format profile              : High@L4.1
    Format settings             : CABAC / 4 Ref Frames
    Format settings, CABAC      : Yes
    Format settings, Reference  : 4 frames
    Format settings, GOP        : M=3, N=12
    Codec ID                    : V_MPEG4/ISO/AVC
    Duration                    : 1 h 49 min
    Bit rate mode               : Variable
    Bit rate                    : 35.8 Mb/s
    Maximum bit rate            : 37.0 Mb/s
    Width                       : 1 920 pixels
    Height                      : 1 080 pixels
    Display aspect ratio        : 16:9
    Frame rate mode             : Constant
    Frame rate                  : 23.976 (24000/1001) FPS
    Color space                 : YUV
    Chroma subsampling          : 4:2:0
    Bit depth                   : 8 bits
    Scan type                   : Progressive
    Bits/(Pixel*Frame)          : 0.720
    Stream size                 : 27.5 GiB (93%)
    Default                     : Yes
    Forced                      : No

    Audio #1
    ID                          : 2
    Format                      : DTS XLL
    Format/Info                 : Digital Theater Systems
    Commercial name             : DTS-HD Master Audio
    Codec ID                    : A_DTS
    Duration                    : 1 h 49 min
    Bit rate mode               : Variable
    Bit rate                    : 1 880 kb/s
    Channel(s)                  : 2 channels
    Channel layout              : L R
    Sampling rate               : 48.0 kHz
    Frame rate                  : 93.750 FPS (512 SPF)
    Bit depth                   : 24 bits
    Compression mode            : Lossless
    Stream size                 : 1.44 GiB (5%)
    Language                    : English
    Default                     : No
    Forced                      : No

    Audio #2
    ID                          : 3
    Format                      : DTS
    Format/Info                 : Digital Theater Systems
    Codec ID                    : A_DTS
    Duration                    : 1 h 49 min
    Bit rate mode               : Constant
    Bit rate                    : 768 kb/s
    Channel(s)                  : 2 channels
    Channel layout              : L R
    Sampling rate               : 48.0 kHz
    Frame rate                  : 93.750 FPS (512 SPF)
    Bit depth                   : 24 bits
    Compression mode            : Lossy
    Stream size                 : 604 MiB (2%)
    Language                    : Spanish
    Default                     : Yes
    Forced                      : No

    Text #1
    ID                          : 4
    Format                      : PGS
    Muxing mode                 : zlib
    Codec ID                    : S_HDMV/PGS
    Codec ID/Info               : Picture based subtitle format used on BDs/HD-DVDs
    Duration                    : 1 h 48 min
    Bit rate                    : 28.9 kb/s
    Count of elements           : 2276
    Stream size                 : 22.4 MiB (0%)
    Language                    : Spanish
    Default                     : No
    Forced                      : No

    Text #2
    ID                          : 5
    Format                      : PGS
    Muxing mode                 : zlib
    Codec ID                    : S_HDMV/PGS
    Codec ID/Info               : Picture based subtitle format used on BDs/HD-DVDs
    Duration                    : 1 h 40 min
    Bit rate                    : 346 b/s
    Count of elements           : 24
    Stream size                 : 255 KiB (0%)
    Language                    : Spanish
    Default                     : No
    Forced                      : No

    Menu
    00:00:00.000                : en:Chapter 1
    00:04:42.782                : en:Chapter 2
    00:11:51.419                : en:Chapter 3
    00:16:06.674                : en:Chapter 4
    00:22:45.614                : en:Chapter 5
    00:29:14.627                : en:Chapter 6
    00:36:26.475                : en:Chapter 7
    00:42:26.335                : en:Chapter 8
    00:47:49.658                : en:Chapter 9
    00:54:33.103                : en:Chapter 10
    01:00:29.000                : en:Chapter 11
    01:07:04.645                : en:Chapter 12
    01:15:25.395                : en:Chapter 13
    01:22:00.707                : en:Chapter 14
    01:27:29.619                : en:Chapter 15
    01:34:07.600                : en:Chapter 16
    01:39:14.990                : en:Chapter 17
    01:48:08.857                : en:Chapter 18

  • Peso: 29.5 GiB

Sinopsis

Un joven presidiario de apenas veinte años logra escapar de la cárcel con la ayuda de su esposa, casi una niña. Lo que se propone es recuperar a su hijo, cuya custodia ha sido entregada por la ley a una familia de acogida. Lo sorprendente es que la fuga se produce a pesar de que la pareja tiene serias limitaciones mentales.

Ficha técnica

Video trailer de la película

Enlaces de descarga

Rip de Bluray

Descargar The Sugarland Express (1974) REMUX 1080p Latino – CMHDD


Aportes de DPeliculasHDmega la pass es:dpeliculashdmega.org Aportes de CinemaniaHD la pass es:cinemaniahdd.com
Guardado en : Crimen , Drama

Películas relacionadas

The Sugarland Express (1974) REMUX 1080p Latino – CMHDD pelicula full hd, The Sugarland Express (1974) REMUX 1080p Latino – CMHDD mega latino, The Sugarland Express (1974) REMUX 1080p Latino – CMHDD 4k latino, The Sugarland Express (1974) REMUX 1080p Latino – CMHDD pelicula completa, The Sugarland Express (1974) REMUX 1080p Latino – CMHDD descargar gratis, descargar The Sugarland Express (1974) REMUX 1080p Latino – CMHDD pelicula latino, The Sugarland Express (1974) REMUX 1080p Latino – CMHDD 1 link mega, The Sugarland Express (1974) REMUX 1080p Latino – CMHDD 1 link google drive, The Sugarland Express (1974) REMUX 1080p Latino – CMHDD hd 1080p latino.