The Strange House (2021) NF WEB-DL 1080p Latino

32 vistas
1 estrella2 estrellas3 estrellas4 estrellas5 estrellas (1 votos, promedio: 5,00 de 5)
Cargando...

Información de The Strange House (2021) NF WEB-DL 1080p Latino

Datos de la película

  • Calidad:
  • Audio: Español Latino AC3 5.1 Netflix - Ingles AC3 5.1 Netflix
  • Subtitulos: Español Latino SRT- FORZADOS SRT
  • Resolución: 1920x1080
  • Formato: MKV
  • Codec: H.264
  • Encoder: cinemaniahdd
  • Mediainfo: Clic para Mostrar Datos Ver
  • The Strange House (2021) NF WEB-DL 1080p Latino [CNMNHDD].mkv
    Format                      : Matroska
    Format version              : Version 4
    File size                   : 5.01 GiB
    Duration                    : 1 h 39 min
    Overall bit rate mode       : Variable
    Overall bit rate            : 7 193 kb/s
    Movie name                  : The Strange House (2021) - CinemaniaHDD.Net
    Encoded date                : UTC 2021-05-14 08:05:09
    Writing application         : mkvmerge v56.1.0 ('My Friend') 64-bit
    Writing library             : libebml v1.4.2 + libmatroska v1.6.4

    Video
    ID                          : 1
    Format                      : AVC
    Format/Info                 : Advanced Video Codec
    Format profile              : High@L4
    Format settings             : CABAC / 4 Ref Frames
    Format settings, CABAC      : Yes
    Format settings, Reference  : 4 frames
    Codec ID                    : V_MPEG4/ISO/AVC
    Duration                    : 1 h 39 min
    Bit rate mode               : Variable
    Bit rate                    : 6 425 kb/s
    Maximum bit rate            : 20.0 Mb/s
    Width                       : 1 920 pixels
    Height                      : 1 080 pixels
    Display aspect ratio        : 16:9
    Frame rate mode             : Constant
    Frame rate                  : 24.000 FPS
    Color space                 : YUV
    Chroma subsampling          : 4:2:0
    Bit depth                   : 8 bits
    Scan type                   : Progressive
    Bits/(Pixel*Frame)          : 0.129
    Stream size                 : 4.48 GiB (89%)
    Title                       : CinemaniaHDD
    Writing library             : x264 core 148 r2722 1b0121b
    Encoding settings           : cabac=1 / ref=4 / deblock=1:0:0 / analyse=0x3:0x111 / me=umh / subme=10 / psy=1 / psy_rd=1.00:0.00 / mixed_ref=1 / me_range=120 / chroma_me=1 / trellis=2 / 8x8dct=1 / cqm=0 / deadzone=21,11 / fast_pskip=1 / chroma_qp_offset=-2 / threads=8 / lookahead_threads=2 / sliced_threads=0 / nr=0 / decimate=1 / interlaced=0 / bluray_compat=0 / stitchable=1 / constrained_intra=0 / bframes=16 / b_pyramid=2 / b_adapt=2 / b_bias=0 / direct=3 / weightb=1 / open_gop=0 / weightp=2 / keyint=240 / keyint_min=121 / scenecut=0 / intra_refresh=0 / rc_lookahead=240 / rc=crf / mbtree=1 / crf=16.0 / qcomp=0.50 / qpmin=6 / qpmax=51 / qpstep=4 / vbv_maxrate=20000 / vbv_bufsize=25000 / crf_max=0.0 / nal_hrd=vbr / filler=0 / ip_ratio=1.40 / aq=1:0.80
    Default                     : Yes
    Forced                      : No

    Audio #1
    ID                          : 2
    Format                      : AC-3
    Format/Info                 : Audio Coding 3
    Commercial name             : Dolby Digital
    Codec ID                    : A_AC3
    Duration                    : 1 h 39 min
    Bit rate mode               : Constant
    Bit rate                    : 384 kb/s
    Channel(s)                  : 6 channels
    Channel layout              : L R C LFE Ls Rs
    Sampling rate               : 48.0 kHz
    Frame rate                  : 31.250 FPS (1536 SPF)
    Compression mode            : Lossy
    Stream size                 : 274 MiB (5%)
    Title                       : Español latino [CinemaniaHDD]
    Language                    : Spanish
    Service kind                : Complete Main
    Default                     : Yes
    Forced                      : No

    Audio #2
    ID                          : 3
    Format                      : AC-3
    Format/Info                 : Audio Coding 3
    Commercial name             : Dolby Digital
    Codec ID                    : A_AC3
    Duration                    : 1 h 39 min
    Bit rate mode               : Constant
    Bit rate                    : 384 kb/s
    Channel(s)                  : 6 channels
    Channel layout              : L R C LFE Ls Rs
    Sampling rate               : 48.0 kHz
    Frame rate                  : 31.250 FPS (1536 SPF)
    Compression mode            : Lossy
    Stream size                 : 274 MiB (5%)
    Title                       : Inglés [CinemaniaHDD]
    Language                    : English
    Service kind                : Complete Main
    Default                     : No
    Forced                      : No

    Text #1
    ID                          : 4
    Format                      : UTF-8
    Codec ID                    : S_TEXT/UTF8
    Codec ID/Info               : UTF-8 Plain Text
    Duration                    : 1 h 38 min
    Bit rate                    : 0 b/s
    Count of elements           : 32
    Stream size                 : 685 Bytes (0%)
    Title                       : Forzados [CinemaniaHDD]
    Language                    : Spanish
    Default                     : Yes
    Forced                      : Yes

    Text #2
    ID                          : 5
    Format                      : UTF-8
    Codec ID                    : S_TEXT/UTF8
    Codec ID/Info               : UTF-8 Plain Text
    Duration                    : 1 h 38 min
    Bit rate                    : 29 b/s
    Count of elements           : 871
    Stream size                 : 21.2 KiB (0%)
    Title                       : Español latino [CinemaniaHDD]
    Language                    : Spanish
    Default                     : No
    Forced                      : No

     

  • Peso: 5.01 GiB

Sinopsis

Cuando una familia se muda de la gran ciudad a un pueblo apartado, dos jóvenes hermanos y sus nuevos amigos intentan resolver el abominable misterio que rodea a la casa.

Ficha técnica

Video trailer de la película

Enlaces de descarga

Rip de Bluray

Descargar The Strange House (2021) NF WEB-DL 1080p Latino




Aportes de DPeliculasHDmega la pass es:dpeliculashdmega.org Aportes de CinemaniaHD la pass es:cinemaniahdd.com
Guardado en : Aventura , Familia , Misterio , Netflix

Películas relacionadas

  • Annabelle 3: Viene A Casa (2019) Full HD 1080p Latino

    Annabelle 3: Viene A Casa (2019) Full HD 1080p Latino

    2019
    Annabelle 3: Viene A Casa (2019) Full HD 1080p Latino

    5.0 1h 46m 2019

    Descargar Annabelle 3: Viene A Casa (2019) Full HD 1080p Latino. Annabelle Vuelve a Casa es la tercera...

    Director: Gary Dauberman

    Género: FULL 1080p Plateadas

    Actores: Vera Farmiga

  • Annabelle 3: Viene A Casa (2019) REMUX 1080p Latino

    Annabelle 3: Viene A Casa (2019) REMUX 1080p Latino

    2019
    Annabelle 3: Viene A Casa (2019) REMUX 1080p Latino

    5.0 1h 46m 2019

    Descargar Annabelle 3 Vuelve a casa (2019) REMUX 1080p Latino. Annabelle Vuelve a Casa es la tercera...

    Director: Gary Dauberman

    Género: Misterio

    Actores: Vera Farmiga

  • Annabelle 2: La Creación (2017) REMUX 1080p Latino

    Annabelle 2: La Creación (2017) REMUX 1080p Latino

    2017
    Annabelle 2: La Creación (2017) REMUX 1080p Latino

    3.0 1h 49m 2017

    Descargar Annabelle 2: La Creación (2017) REMUX 1080p Latino. Varios años después del trágico fallecimiento...

    Director: Jan McWilliams

    Género: Misterio

    Actores: Ward Horton

  • Godzilla vs Kong (2021) REMUX 4K HDR Latino – CMHDD

    Godzilla vs Kong (2021) REMUX 4K HDR Latino – CMHDD

    2021
    Godzilla vs Kong (2021) REMUX 4K HDR Latino – CMHDD

    5.0 1h 53m 2021

    Godzilla y Kong, dos de las fuerzas más poderosas de un planeta habitado por todo tipo de aterradoras...

    Director: Thomas Robinson Harper

    Género: Acción

    Actores: Victoria Liu

The Strange House (2021) NF WEB-DL 1080p Latino pelicula full hd, The Strange House (2021) NF WEB-DL 1080p Latino mega latino, The Strange House (2021) NF WEB-DL 1080p Latino 4k latino, The Strange House (2021) NF WEB-DL 1080p Latino pelicula completa, The Strange House (2021) NF WEB-DL 1080p Latino descargar gratis, descargar The Strange House (2021) NF WEB-DL 1080p Latino pelicula latino, The Strange House (2021) NF WEB-DL 1080p Latino 1 link mega, The Strange House (2021) NF WEB-DL 1080p Latino 1 link google drive, The Strange House (2021) NF WEB-DL 1080p Latino hd 1080p latino.
Comentarios 0