×

¿Problemas para descargar con Mozilla, EDGE? Deshabilita la opción "Abrir vinculos en una pestaña nueva" tal como lo muestra ésta imagen.

The Stand (2021) Temporada 1 AMZN WEB-DL 1080p Latino

431 vistas

Información de The Stand (2021) Temporada 1 AMZN WEB-DL 1080p Latino

Datos de la película

  • Calidad: WEBDL
  • Audio: Español Latino E-AC3 5.1 AMAZON - Ingles E-AC3 5.1 AMAZON
  • Subtitulos: Español Latino SRT- FORZADOS SRT
  • Resolución: 1920x872
  • Formato: MKV
  • Codec: H.264
  • Encoder: cinemaniahdd
  • Mediainfo: Clic para Mostrar Datos Ver
  • The Stand T01E01 AMZN WEB-DL 1080p Latino [CNMNHDD].mkv
    Format                      : Matroska
    Format version              : Version 4
    File size                   : 4.01 GiB
    Duration                    : 58 min 58 s
    Overall bit rate            : 9 735 kb/s
    Movie name                  : The Stand T01E01 - CinemaniaHDD.Net
    Encoded date                : UTC 2021-04-04 01:40:31
    Writing application         : mkvmerge v51.0.0 ('I Wish') 64-bit
    Writing library             : libebml v1.4.0 + libmatroska v1.6.2

    Video
    ID                          : 1
    Format                      : AVC
    Format/Info                 : Advanced Video Codec
    Format profile              : High@L4
    Format settings             : CABAC / 4 Ref Frames
    Format settings, CABAC      : Yes
    Format settings, Reference  : 4 frames
    Codec ID                    : V_MPEG4/ISO/AVC
    Duration                    : 58 min 58 s
    Bit rate mode               : Constant
    Bit rate                    : 7 812 kb/s
    Nominal bit rate            : 10 000 kb/s
    Width                       : 1 920 pixels
    Height                      : 872 pixels
    Display aspect ratio        : 2.2:1
    Original display aspect rat : 2.2:1
    Frame rate mode             : Constant
    Frame rate                  : 23.976 (24000/1001) FPS
    Color space                 : YUV
    Chroma subsampling          : 4:2:0
    Bit depth                   : 8 bits
    Scan type                   : Progressive
    Bits/(Pixel*Frame)          : 0.195
    Stream size                 : 3.22 GiB (80%)
    Title                       : CinemaniaHDD
    Language                    : English
    Default                     : Yes
    Forced                      : No
    Color range                 : Limited
    Color primaries             : BT.709
    Transfer characteristics    : BT.709
    Matrix coefficients         : BT.709

    Audio #1
    ID                          : 2
    Format                      : AC-3
    Format/Info                 : Audio Coding 3
    Commercial name             : Dolby Digital
    Codec ID                    : A_AC3
    Duration                    : 58 min 58 s
    Bit rate mode               : Constant
    Bit rate                    : 640 kb/s
    Channel(s)                  : 6 channels
    Channel layout              : L R C LFE Ls Rs
    Sampling rate               : 48.0 kHz
    Frame rate                  : 31.250 FPS (1536 SPF)
    Compression mode            : Lossy
    Stream size                 : 270 MiB (7%)
    Title                       : Español latino - AC3 [CinemaniaHDD]
    Language                    : Spanish
    Service kind                : Complete Main
    Default                     : Yes
    Forced                      : No

    Audio #2
    ID                          : 3
    Format                      : E-AC-3
    Format/Info                 : Enhanced AC-3
    Commercial name             : Dolby Digital Plus
    Codec ID                    : A_EAC3
    Duration                    : 58 min 58 s
    Bit rate mode               : Constant
    Bit rate                    : 640 kb/s
    Channel(s)                  : 6 channels
    Channel layout              : L R C LFE Ls Rs
    Sampling rate               : 48.0 kHz
    Frame rate                  : 31.250 FPS (1536 SPF)
    Compression mode            : Lossy
    Stream size                 : 270 MiB (7%)
    Title                       : Español latino - E-AC3 [CinemaniaHDD]
    Language                    : Spanish
    Service kind                : Complete Main
    Default                     : No
    Forced                      : No

    Audio #3
    ID                          : 4
    Format                      : E-AC-3
    Format/Info                 : Enhanced AC-3
    Commercial name             : Dolby Digital Plus
    Codec ID                    : A_EAC3
    Duration                    : 58 min 58 s
    Bit rate mode               : Constant
    Bit rate                    : 640 kb/s
    Channel(s)                  : 6 channels
    Channel layout              : L R C LFE Ls Rs
    Sampling rate               : 48.0 kHz
    Frame rate                  : 31.250 FPS (1536 SPF)
    Compression mode            : Lossy
    Stream size                 : 270 MiB (7%)
    Title                       : Inglés - E-AC3 [CinemaniaHDD]
    Language                    : English
    Service kind                : Complete Main
    Default                     : No
    Forced                      : No

    Text #1
    ID                          : 5
    Format                      : UTF-8
    Codec ID                    : S_TEXT/UTF8
    Codec ID/Info               : UTF-8 Plain Text
    Duration                    : 56 min 1 s
    Bit rate                    : 1 b/s
    Count of elements           : 20
    Stream size                 : 566 Bytes (0%)
    Title                       : Forzados [CinemaniaHDD]
    Language                    : Spanish
    Default                     : Yes
    Forced                      : Yes

    Text #2
    ID                          : 6
    Format                      : UTF-8
    Codec ID                    : S_TEXT/UTF8
    Codec ID/Info               : UTF-8 Plain Text
    Duration                    : 58 min 48 s
    Bit rate                    : 52 b/s
    Count of elements           : 628
    Stream size                 : 22.8 KiB (0%)
    Title                       : Español latino [CinemaniaHDD]
    Language                    : Spanish
    Default                     : No
    Forced                      : No

    Text #3
    ID                          : 7
    Format                      : UTF-8
    Codec ID                    : S_TEXT/UTF8
    Codec ID/Info               : UTF-8 Plain Text
    Duration                    : 58 min 48 s
    Bit rate                    : 66 b/s
    Count of elements           : 982
    Stream size                 : 28.8 KiB (0%)
    Title                       : Inglés [CC] [CinemaniaHDD]
    Language                    : English
    Default                     : No
    Forced                      : No

    Menu
    00:00:00.000                : :Studio Logo
    00:00:06.000                : :Scene 2
    00:00:39.000                : :Title Sequence
    00:00:48.000                : :Scene 4
    00:06:28.000                : :Scene 5
    00:16:02.000                : :Scene 6
    00:22:53.000                : :Scene 7
    00:28:41.000                : :Scene 8
    00:35:26.000                : :Scene 9
    00:46:39.000                : :Scene 10
    00:54:03.000                : :Scene 11
    00:56:21.000                : :End Credits

     

  • Peso: 4.01 GiB Aprox ---- 34.2 GiB in 9 Chapters.

Sinopsis

The Stand es la visión apocalíptica de Stephen King de un mundo asolado por una plaga y envuelto en una lucha básica entre el bien y el mal. El destino de la humanidad descansa en los frágiles hombros de la Madre Abagail, de 108 años, y algunos sobrevivientes. Sus peores pesadillas se encarnan en un hombre con una sonrisa letal y poderes atroces: Randall Flagg, el Hombre Oscuro.

Ficha técnica

Video trailer de la película

Enlaces de descarga

Rip de Bluray

Descargar The Stand (2021) Temporada 1 AMZN WEB-DL 1080p Latino




Aportes de DPeliculasHDmega la pass es:dpeliculashdmega.org Aportes de CinemaniaHD la pass es:cinemaniahdd.com
Guardado en : Drama , Sci-Fi & Fantasy , Series

Películas relacionadas

descargar The Stand (2021) Temporada 1 AMZN WEB-DL 1080p Latino WEBDL 1080p gratis, The Stand (2021) Temporada 1 AMZN WEB-DL 1080p Latino WEBDL mega 1 link, The Stand (2021) Temporada 1 AMZN WEB-DL 1080p Latino WEBDL serie completa, descargar The Stand (2021) Temporada 1 AMZN WEB-DL 1080p Latino WEBDL gratis en mega.

The Stand (2021) Temporada 1 AMZN WEB-DL 1080p Latino pelicula full hd, The Stand (2021) Temporada 1 AMZN WEB-DL 1080p Latino mega latino, The Stand (2021) Temporada 1 AMZN WEB-DL 1080p Latino 4k latino, The Stand (2021) Temporada 1 AMZN WEB-DL 1080p Latino pelicula completa, The Stand (2021) Temporada 1 AMZN WEB-DL 1080p Latino descargar gratis, descargar The Stand (2021) Temporada 1 AMZN WEB-DL 1080p Latino pelicula latino, The Stand (2021) Temporada 1 AMZN WEB-DL 1080p Latino 1 link mega, The Stand (2021) Temporada 1 AMZN WEB-DL 1080p Latino 1 link google drive, The Stand (2021) Temporada 1 AMZN WEB-DL 1080p Latino hd 1080p latino.
Comentarios 2
  • Balazzo - 04 abril, 2021

    error en paste publico: Error establishing a database connection

    • CinemaniaHDD - 04 abril, 2021

      Hola, aca me sale todo bien.