×

¿Problemas para descargar con Mozilla, EDGE? Deshabilita la opción "Abrir vinculos en una pestaña nueva" tal como lo muestra ésta imagen.

James Bond: La Espía que me Amó (1977) REMUX 1080p Latino

360 vistas

Información de James Bond: La Espía que me Amó (1977) REMUX 1080p Latino

Datos de la película

  • Calidad: Full 1080p
  • Audio: Español Latino AC3 5.1 BLURAY - Ingles DTS 5.1 BLURAY
  • Subtitulos: Español Latino PGS - Ingles PGS
  • Resolución: 1920x1080p
  • Formato: MKV
  • Codec: H.264
  • Encoder: CinefiloCool
  • Mediainfo: Clic para Mostrar Datos Ver
  • La Espía Que Me Amó (1977) REMUX 1080p Latino-CMHDD.mkv
    Format                      : Matroska
    Format version              : Version 4
    File size                   : 27.7 GiB
    Duration                    : 2 h 5 min
    Overall bit rate mode       : Variable
    Overall bit rate            : 31.6 Mb/s
    Movie name                  : The Spy Who Loved Me (1977) CinemaniaHDD.Net
    Encoded date                : UTC 2020-06-03 21:42:53
    Writing application         : mkvmerge v46.0.0 ('No Deeper Escape') 64-bit
    Writing library             : libebml v1.3.10 + libmatroska v1.5.2
    Attachments                 : CINEMANIAHD.png

    Video
    ID                          : 1
    ID in the original source m : 4113 (0x1011)
    Format                      : AVC
    Format/Info                 : Advanced Video Codec
    Format profile              : High@L4.1
    Format settings             : CABAC / 4 Ref Frames
    Format settings, CABAC      : Yes
    Format settings, Reference  : 4 frames
    Format settings, GOP        : M=1, N=12
    Codec ID                    : V_MPEG4/ISO/AVC
    Duration                    : 2 h 5 min
    Bit rate mode               : Variable
    Bit rate                    : 27.0 Mb/s
    Maximum bit rate            : 32.0 Mb/s
    Width                       : 1 920 pixels
    Height                      : 1 080 pixels
    Display aspect ratio        : 16:9
    Frame rate mode             : Constant
    Frame rate                  : 23.976 (24000/1001) FPS
    Color space                 : YUV
    Chroma subsampling          : 4:2:0
    Bit depth                   : 8 bits
    Scan type                   : Progressive
    Bits/(Pixel*Frame)          : 0.543
    Stream size                 : 23.7 GiB (85%)
    Title                       : REMUX 1080p [CinemaniaHDD]
    Default                     : Yes
    Forced                      : Yes
    Original source medium      : Blu-ray

    Audio #1
    ID                          : 2
    ID in the original source m : 4354 (0x1102)
    Format                      : AC-3
    Format/Info                 : Audio Coding 3
    Commercial name             : Dolby Digital
    Codec ID                    : A_AC3
    Duration                    : 2 h 5 min
    Bit rate mode               : Constant
    Bit rate                    : 448 kb/s
    Channel(s)                  : 6 channels
    Channel layout              : L R C LFE Ls Rs
    Sampling rate               : 48.0 kHz
    Frame rate                  : 31.250 FPS (1536 SPF)
    Compression mode            : Lossy
    Stream size                 : 403 MiB (1%)
    Title                       : Español Latino [CinemaniaHDD]
    Language                    : Spanish
    Service kind                : Complete Main
    Default                     : Yes
    Forced                      : Yes
    Original source medium      : Blu-ray

    Audio #2
    ID                          : 3
    ID in the original source m : 4352 (0x1100)
    Format                      : DTS XLL
    Format/Info                 : Digital Theater Systems
    Commercial name             : DTS-HD Master Audio
    Codec ID                    : A_DTS
    Duration                    : 2 h 5 min
    Bit rate mode               : Variable
    Bit rate                    : 4 141 kb/s
    Channel(s)                  : 6 channels
    Channel layout              : C L R Ls Rs LFE
    Sampling rate               : 48.0 kHz
    Frame rate                  : 93.750 FPS (512 SPF)
    Bit depth                   : 24 bits
    Compression mode            : Lossless
    Stream size                 : 3.63 GiB (13%)
    Title                       : Ingles [CinemaniaHDD]
    Language                    : English
    Default                     : No
    Forced                      : No
    Original source medium      : Blu-ray

    Text #1
    ID                          : 4
    Format                      : PGS
    Muxing mode                 : zlib
    Codec ID                    : S_HDMV/PGS
    Codec ID/Info               : Picture based subtitle format used on BDs/HD-DVDs
    Duration                    : 2 h 3 min
    Bit rate                    : 384 b/s
    Count of elements           : 44
    Stream size                 : 349 KiB (0%)
    Title                       : Forzados-PGS [CinemaniaHDD]
    Language                    : Spanish
    Default                     : Yes
    Forced                      : Yes

    Text #2
    ID                          : 5
    ID in the original source m : 4609 (0x1201)
    Format                      : PGS
    Muxing mode                 : zlib
    Codec ID                    : S_HDMV/PGS
    Codec ID/Info               : Picture based subtitle format used on BDs/HD-DVDs
    Duration                    : 2 h 4 min
    Bit rate                    : 21.5 kb/s
    Count of elements           : 1792
    Stream size                 : 19.2 MiB (0%)
    Title                       : Español-PGS [CinemaniaHDD]
    Language                    : Spanish
    Default                     : No
    Forced                      : No
    Original source medium      : Blu-ray

    Text #3
    ID                          : 6
    ID in the original source m : 4608 (0x1200)
    Format                      : PGS
    Muxing mode                 : zlib
    Codec ID                    : S_HDMV/PGS
    Codec ID/Info               : Picture based subtitle format used on BDs/HD-DVDs
    Duration                    : 2 h 5 min
    Bit rate                    : 21.5 kb/s
    Count of elements           : 1682
    Stream size                 : 19.3 MiB (0%)
    Title                       : Ingles-PGS [CinemaniaHDD]
    Language                    : English
    Default                     : No
    Forced                      : No
    Original source medium      : Blu-ray

    Text #4
    ID                          : 7
    Format                      : UTF-8
    Codec ID                    : S_TEXT/UTF8
    Codec ID/Info               : UTF-8 Plain Text
    Duration                    : 2 h 3 min
    Bit rate                    : 0 b/s
    Count of elements           : 22
    Stream size                 : 446 Bytes (0%)
    Title                       : Forzados-SRT [CinemaniaHDD]
    Language                    : Spanish
    Default                     : No
    Forced                      : No

    Text #5
    ID                          : 8
    Format                      : UTF-8
    Codec ID                    : S_TEXT/UTF8
    Codec ID/Info               : UTF-8 Plain Text
    Duration                    : 2 h 2 min
    Bit rate                    : 34 b/s
    Count of elements           : 867
    Stream size                 : 31.3 KiB (0%)
    Title                       : Español-SRT [CinemaniaHDD]
    Language                    : Spanish
    Default                     : No
    Forced                      : No

    Menu
    00:00:00.000                : en:Chapter 01
    00:00:49.507                : en:Chapter 02
    00:05:59.609                : en:Chapter 03
    00:08:05.985                : en:Chapter 04
    00:12:37.047                : en:Chapter 05
    00:15:15.164                : en:Chapter 06
    00:18:01.288                : en:Chapter 07
    00:20:35.234                : en:Chapter 08
    00:23:16.770                : en:Chapter 09
    00:27:28.813                : en:Chapter 10
    00:32:58.434                : en:Chapter 11
    00:40:01.023                : en:Chapter 12
    00:46:12.436                : en:Chapter 13
    00:48:31.742                : en:Chapter 14
    00:51:06.313                : en:Chapter 15
    00:53:24.034                : en:Chapter 16
    00:57:37.120                : en:Chapter 17
    01:01:14.712                : en:Chapter 18
    01:06:03.626                : en:Chapter 19
    01:10:39.902                : en:Chapter 20
    01:17:02.451                : en:Chapter 21
    01:22:40.705                : en:Chapter 22
    01:25:27.914                : en:Chapter 23
    01:31:05.960                : en:Chapter 24
    01:34:50.267                : en:Chapter 25
    01:36:16.187                : en:Chapter 26
    01:40:37.573                : en:Chapter 27
    01:48:56.154                : en:Chapter 28
    01:54:11.845                : en:Chapter 29
    01:57:53.524                : en:Chapter 30
    01:59:45.553                : en:Chapter 31
    02:03:56.679                : en:Chapter 32

  • Peso: 27.7 GiB

Sinopsis

Descargar James Bond: La Espía que me Amó (1977) REMUX 1080p Latino. La misteriosa desaparición de dos submarinos nucleares hace que colaboren los mejores operativos de los servicios secretos británico y soviético: James Bond y la mayor Amasova. Detrás de todo se encuentra el magnate Stromberg, cuya finalidad es la destrucción de la «corrupta» humanidad para fundar una civilización pura bajo el mar.

Ficha técnica

Video trailer de la película

Enlaces de descarga

Rip de Bluray

Descargar James Bond: La Espía que me Amó (1977) REMUX 1080p Latino




Aportes de DPeliculasHDmega la pass es:dpeliculashdmega.org Aportes de CinemaniaHD la pass es:cinemaniahdd.com
Guardado en : Acción , Aventura , Remux , Suspenso

Películas relacionadas

  • Wire Room (2022) HD 1080p Latino

    Wire Room (2022) HD 1080p Latino

    2022
    Wire Room (2022) HD 1080p Latino

    1h 37m 2022

    Descargar Wire Room (2022) HD 1080p Latino. Mientras está de servicio en la sala de cables, un agente...

    Director: Matt Eskandari

    Género: Acción

    Actores: Texas Battle

  • Wire Room (2022) PLACEBO Full HD 1080p Latino

    Wire Room (2022) PLACEBO Full HD 1080p Latino

    2022
    Wire Room (2022) PLACEBO Full HD 1080p Latino

    1h 37m 2022

    Descargar Wire Room (2022) PLACEBO Full HD 1080p Latino. Mientras está de servicio en la sala de cables,...

    Director: Matt Eskandari

    Género: Acción

    Actores: Texas Battle

  • Wire Room (2022) REMUX 1080p Latino

    Wire Room (2022) REMUX 1080p Latino

    2022
    Wire Room (2022) REMUX 1080p Latino

    1h 37m 2022

    Descargar Wire Room (2022) REMUX 1080p Latino. Mientras está de servicio en la sala de cables, un agente...

    Director: Matt Eskandari

    Género: Acción

    Actores: Texas Battle

descargar James Bond: La Espía que me Amó (1977) REMUX 1080p Latino Full 1080p 1080p gratis, James Bond: La Espía que me Amó (1977) REMUX 1080p Latino Full 1080p mega 1 link, James Bond: La Espía que me Amó (1977) REMUX 1080p Latino Full 1080p pelicula completa, descargar James Bond: La Espía que me Amó (1977) REMUX 1080p Latino Full 1080p gratis en mega.

James Bond: La Espía que me Amó (1977) REMUX 1080p Latino pelicula full hd, James Bond: La Espía que me Amó (1977) REMUX 1080p Latino mega latino, James Bond: La Espía que me Amó (1977) REMUX 1080p Latino 4k latino, James Bond: La Espía que me Amó (1977) REMUX 1080p Latino pelicula completa, James Bond: La Espía que me Amó (1977) REMUX 1080p Latino descargar gratis, descargar James Bond: La Espía que me Amó (1977) REMUX 1080p Latino pelicula latino, James Bond: La Espía que me Amó (1977) REMUX 1080p Latino 1 link mega, James Bond: La Espía que me Amó (1977) REMUX 1080p Latino 1 link google drive, James Bond: La Espía que me Amó (1977) REMUX 1080p Latino hd 1080p latino.
Comentarios 0