×

¿Problemas para descargar con Mozilla, EDGE? Deshabilita la opción "Abrir vinculos en una pestaña nueva" tal como lo muestra ésta imagen.

James Bond: La Espía que me Amó (1977) 1080p Latino

335 vistas

Información de James Bond: La Espía que me Amó (1977) 1080p Latino

Datos de la película

  • Calidad: 1080p
  • Audio: Español Latino AC3 5.1 BLURAY - Ingles AC3 5.1 BLURAY
  • Subtitulos: Español Latino SRT - Ingles SRT
  • Resolución: 1920x818p
  • Formato: MKV
  • Codec: H.264
  • Encoder: CinefiloCool
  • Mediainfo: Clic para Mostrar Datos Ver
  • La Espía Que Me Amó (1977) 1080p Latino-CMHDD.mkv
    Format                      : Matroska
    Format version              : Version 4
    File size                   : 4.55 GiB
    Duration                    : 2 h 5 min
    Overall bit rate mode       : Variable
    Overall bit rate            : 5 185 kb/s
    Movie name                  : The Spy Who Loved Me (1977) CinemaniaHDD.Net
    Encoded date                : UTC 2020-06-03 21:56:51
    Writing application         : mkvmerge v46.0.0 ('No Deeper Escape') 64-bit
    Writing library             : libebml v1.3.10 + libmatroska v1.5.2
    Attachments                 : CINEMANIAHD.png

    Video
    ID                          : 1
    Format                      : AVC
    Format/Info                 : Advanced Video Codec
    Format profile              : High@L4
    Format settings             : CABAC / 3 Ref Frames
    Format settings, CABAC      : Yes
    Format settings, Reference  : 3 frames
    Codec ID                    : V_MPEG4/ISO/AVC
    Duration                    : 2 h 5 min
    Bit rate mode               : Variable
    Bit rate                    : 4 096 kb/s
    Width                       : 1 920 pixels
    Height                      : 818 pixels
    Display aspect ratio        : 2.35:1
    Frame rate mode             : Constant
    Frame rate                  : 23.976 (24000/1001) FPS
    Color space                 : YUV
    Chroma subsampling          : 4:2:0
    Bit depth                   : 8 bits
    Scan type                   : Progressive
    Bits/(Pixel*Frame)          : 0.109
    Stream size                 : 3.59 GiB (79%)
    Title                       : HD1080p [CinemaniaHDD]
    Writing library             : x264 core 142 r2479 dd79a61
    Encoding settings           : cabac=1 / ref=3 / deblock=1:0:0 / analyse=0x3:0x113 / me=hex / subme=7 / psy=1 / psy_rd=1.00:0.00 / mixed_ref=1 / me_range=16 / chroma_me=1 / trellis=1 / 8x8dct=1 / cqm=0 / deadzone=21,11 / fast_pskip=1 / chroma_qp_offset=-2 / threads=6 / lookahead_threads=1 / sliced_threads=0 / nr=0 / decimate=1 / interlaced=0 / bluray_compat=0 / constrained_intra=0 / bframes=3 / b_pyramid=0 / b_adapt=1 / b_bias=0 / direct=1 / weightb=1 / open_gop=0 / weightp=2 / keyint=240 / keyint_min=24 / scenecut=40 / intra_refresh=0 / rc_lookahead=40 / rc=2pass / mbtree=1 / bitrate=4096 / ratetol=1.0 / qcomp=0.60 / qpmin=0 / qpmax=69 / qpstep=4 / cplxblur=20.0 / qblur=0.5 / vbv_maxrate=25000 / vbv_bufsize=25000 / nal_hrd=vbr / filler=0 / ip_ratio=1.40 / aq=1:1.00
    Default                     : Yes
    Forced                      : No

    Audio #1
    ID                          : 2
    ID in the original source m : 4354 (0x1102)
    Format                      : AC-3
    Format/Info                 : Audio Coding 3
    Commercial name             : Dolby Digital
    Codec ID                    : A_AC3
    Duration                    : 2 h 5 min
    Bit rate mode               : Constant
    Bit rate                    : 448 kb/s
    Channel(s)                  : 6 channels
    Channel layout              : L R C LFE Ls Rs
    Sampling rate               : 48.0 kHz
    Frame rate                  : 31.250 FPS (1536 SPF)
    Compression mode            : Lossy
    Stream size                 : 403 MiB (9%)
    Title                       : Español Latino [CinemaniaHDD]
    Language                    : Spanish
    Service kind                : Complete Main
    Default                     : Yes
    Forced                      : Yes
    Original source medium      : Blu-ray

    Audio #2
    ID                          : 3
    Format                      : AC-3
    Format/Info                 : Audio Coding 3
    Commercial name             : Dolby Digital
    Codec ID                    : A_AC3
    Duration                    : 2 h 5 min
    Bit rate mode               : Constant
    Bit rate                    : 640 kb/s
    Channel(s)                  : 6 channels
    Channel layout              : L R C LFE Ls Rs
    Sampling rate               : 48.0 kHz
    Frame rate                  : 31.250 FPS (1536 SPF)
    Compression mode            : Lossy
    Stream size                 : 575 MiB (12%)
    Title                       : Ingles [CinemaniaHDD]
    Language                    : English
    Service kind                : Complete Main
    Default                     : No
    Forced                      : No

    Text #1
    ID                          : 4
    Format                      : UTF-8
    Codec ID                    : S_TEXT/UTF8
    Codec ID/Info               : UTF-8 Plain Text
    Duration                    : 2 h 3 min
    Bit rate                    : 0 b/s
    Count of elements           : 22
    Stream size                 : 446 Bytes (0%)
    Title                       : Forzados-SRT [CinemaniaHDD]
    Language                    : Spanish
    Default                     : Yes
    Forced                      : No

    Text #2
    ID                          : 5
    Format                      : UTF-8
    Codec ID                    : S_TEXT/UTF8
    Codec ID/Info               : UTF-8 Plain Text
    Duration                    : 2 h 2 min
    Bit rate                    : 34 b/s
    Count of elements           : 867
    Stream size                 : 31.3 KiB (0%)
    Title                       : Español-SRT [CinemaniaHDD]
    Language                    : Spanish
    Default                     : No
    Forced                      : No

    Text #3
    ID                          : 6
    Format                      : UTF-8
    Codec ID                    : S_TEXT/UTF8
    Codec ID/Info               : UTF-8 Plain Text
    Duration                    : 2 h 2 min
    Bit rate                    : 32 b/s
    Count of elements           : 732
    Stream size                 : 29.1 KiB (0%)
    Title                       : Ingles-SRT [CinemaniaHDD]
    Language                    : English
    Default                     : No
    Forced                      : No

    Menu
    00:00:00.000                : en:Chapter 01
    00:00:49.507                : en:Chapter 02
    00:05:59.609                : en:Chapter 03
    00:08:05.985                : en:Chapter 04
    00:12:37.047                : en:Chapter 05
    00:15:15.164                : en:Chapter 06
    00:18:01.288                : en:Chapter 07
    00:20:35.234                : en:Chapter 08
    00:23:16.770                : en:Chapter 09
    00:27:28.813                : en:Chapter 10
    00:32:58.434                : en:Chapter 11
    00:40:01.023                : en:Chapter 12
    00:46:12.436                : en:Chapter 13
    00:48:31.742                : en:Chapter 14
    00:51:06.313                : en:Chapter 15
    00:53:24.034                : en:Chapter 16
    00:57:37.120                : en:Chapter 17
    01:01:14.712                : en:Chapter 18
    01:06:03.626                : en:Chapter 19
    01:10:39.902                : en:Chapter 20
    01:17:02.451                : en:Chapter 21
    01:22:40.705                : en:Chapter 22
    01:25:27.914                : en:Chapter 23
    01:31:05.960                : en:Chapter 24
    01:34:50.267                : en:Chapter 25
    01:36:16.187                : en:Chapter 26
    01:40:37.573                : en:Chapter 27
    01:48:56.154                : en:Chapter 28
    01:54:11.845                : en:Chapter 29
    01:57:53.524                : en:Chapter 30
    01:59:45.553                : en:Chapter 31
    02:03:56.679                : en:Chapter 32

  • Peso: 4.55 GiB

Sinopsis

Descargar James Bond: La Espía que me Amó (1977) 1080p Latino. La misteriosa desaparición de dos submarinos nucleares hace que colaboren los mejores operativos de los servicios secretos británico y soviético: James Bond y la mayor Amasova. Detrás de todo se encuentra el magnate Stromberg, cuya finalidad es la destrucción de la «corrupta» humanidad para fundar una civilización pura bajo el mar.

Ficha técnica

Video trailer de la película

Enlaces de descarga

Rip de Bluray

Descargar James Bond: La Espía que me Amó (1977) 1080p Latino




Aportes de DPeliculasHDmega la pass es:dpeliculashdmega.org Aportes de CinemaniaHD la pass es:cinemaniahdd.com
Guardado en : Acción , Aventura , HD 1080p , Suspenso

Películas relacionadas

descargar James Bond: La Espía que me Amó (1977) 1080p Latino 1080p 1080p gratis, James Bond: La Espía que me Amó (1977) 1080p Latino 1080p mega 1 link, James Bond: La Espía que me Amó (1977) 1080p Latino 1080p pelicula completa, descargar James Bond: La Espía que me Amó (1977) 1080p Latino 1080p gratis en mega.

James Bond: La Espía que me Amó (1977) 1080p Latino pelicula full hd, James Bond: La Espía que me Amó (1977) 1080p Latino mega latino, James Bond: La Espía que me Amó (1977) 1080p Latino 4k latino, James Bond: La Espía que me Amó (1977) 1080p Latino pelicula completa, James Bond: La Espía que me Amó (1977) 1080p Latino descargar gratis, descargar James Bond: La Espía que me Amó (1977) 1080p Latino pelicula latino, James Bond: La Espía que me Amó (1977) 1080p Latino 1 link mega, James Bond: La Espía que me Amó (1977) 1080p Latino 1 link google drive, James Bond: La Espía que me Amó (1977) 1080p Latino hd 1080p latino.
Comentarios 0