×

¿Problemas para descargar con Mozilla, EDGE? Deshabilita la opción "Abrir vinculos en una pestaña nueva" tal como lo muestra ésta imagen.

Bob Esponja: Un héroe fuera del agua (2015) REMUX 1080p Latino

452 vistas

Información de Bob Esponja: Un héroe fuera del agua (2015) REMUX 1080p Latino

Datos de la película

  • Calidad: Full 1080p
  • Audio: Español Latino AC3 5.1 Netflix - Ingles DTS 5.1 BLURAY
  • Subtitulos: Español Latino SRT - Ingles SRT
  • Resolución: 1920x1080p
  • Formato: MKV
  • Codec: H.264
  • Encoder: CinefiloCool
  • Mediainfo: Clic para Mostrar Datos Ver
  • Bob Esponja Un Heroe Fuera Del Agua (2015) REMUX 1080p Latino-CMHDD.mkv
    Format                      : Matroska
    Format version              : Version 4
    File size                   : 24.9 GiB
    Duration                    : 1 h 32 min
    Overall bit rate mode       : Variable
    Overall bit rate            : 38.6 Mb/s
    Movie name                  : The SpongeBob Movie - Sponge Out of Water (2015) CinemaniaHDD.Net
    Encoded date                : UTC 2020-11-06 06:07:50
    Writing application         : mkvmerge v51.0.0 ('I Wish') 64-bit
    Writing library             : libebml v1.4.0 + libmatroska v1.6.2
    Attachments                 : CINEMANIAHD.png

    Video
    ID                          : 1
    ID in the original source m : 4113 (0x1011)
    Format                      : AVC
    Format/Info                 : Advanced Video Codec
    Format profile              : High@L4.1
    Format settings             : CABAC / 3 Ref Frames
    Format settings, CABAC      : Yes
    Format settings, Reference  : 3 frames
    Format settings, GOP        : M=1, N=12
    Codec ID                    : V_MPEG4/ISO/AVC
    Duration                    : 1 h 32 min
    Bit rate mode               : Variable
    Bit rate                    : 33.7 Mb/s
    Maximum bit rate            : 36.0 Mb/s
    Width                       : 1 920 pixels
    Height                      : 1 080 pixels
    Display aspect ratio        : 16:9
    Frame rate mode             : Constant
    Frame rate                  : 23.976 (24000/1001) FPS
    Color space                 : YUV
    Chroma subsampling          : 4:2:0
    Bit depth                   : 8 bits
    Scan type                   : Progressive
    Bits/(Pixel*Frame)          : 0.678
    Stream size                 : 21.8 GiB (87%)
    Title                       : REMUX HD1080p [CinemaniaHDD]
    Language                    : English
    Default                     : Yes
    Forced                      : No
    Original source medium      : Blu-ray

    Audio #1
    ID                          : 2
    Format                      : AC-3
    Format/Info                 : Audio Coding 3
    Commercial name             : Dolby Digital
    Codec ID                    : A_AC3
    Duration                    : 1 h 32 min
    Bit rate mode               : Constant
    Bit rate                    : 640 kb/s
    Channel(s)                  : 6 channels
    Channel layout              : L R C LFE Ls Rs
    Sampling rate               : 48.0 kHz
    Frame rate                  : 31.250 FPS (1536 SPF)
    Compression mode            : Lossy
    Stream size                 : 424 MiB (2%)
    Title                       : Español Latino [CinemaniaHDD]
    Language                    : Spanish
    Service kind                : Complete Main
    Default                     : Yes
    Forced                      : No

    Audio #2
    ID                          : 3
    ID in the original source m : 4352 (0x1100)
    Format                      : DTS XLL
    Format/Info                 : Digital Theater Systems
    Commercial name             : DTS-HD Master Audio
    Codec ID                    : A_DTS
    Duration                    : 1 h 32 min
    Bit rate mode               : Variable
    Bit rate                    : 4 215 kb/s
    Channel(s)                  : 6 channels
    Channel layout              : C L R Ls Rs LFE
    Sampling rate               : 48.0 kHz
    Frame rate                  : 93.750 FPS (512 SPF)
    Bit depth                   : 24 bits
    Compression mode            : Lossless
    Stream size                 : 2.73 GiB (11%)
    Title                       : Ingles [CinemaniaHDD]
    Language                    : English
    Default                     : No
    Forced                      : No
    Original source medium      : Blu-ray

    Text #1
    ID                          : 4
    Format                      : UTF-8
    Codec ID                    : S_TEXT/UTF8
    Codec ID/Info               : UTF-8 Plain Text
    Duration                    : 1 h 25 min
    Bit rate                    : 0 b/s
    Count of elements           : 15
    Stream size                 : 278 Bytes (0%)
    Title                       : Forzados-SRT [CinemaniaHDD]
    Language                    : Spanish
    Default                     : Yes
    Forced                      : No

    Text #2
    ID                          : 5
    Format                      : UTF-8
    Codec ID                    : S_TEXT/UTF8
    Codec ID/Info               : UTF-8 Plain Text
    Duration                    : 1 h 30 min
    Bit rate                    : 57 b/s
    Count of elements           : 1189
    Stream size                 : 37.9 KiB (0%)
    Title                       : Español-SRT [CinemaniaHDD]
    Language                    : Spanish
    Default                     : No
    Forced                      : No

    Text #3
    ID                          : 6
    Format                      : UTF-8
    Codec ID                    : S_TEXT/UTF8
    Codec ID/Info               : UTF-8 Plain Text
    Duration                    : 1 h 25 min
    Bit rate                    : 57 b/s
    Count of elements           : 1285
    Stream size                 : 36.3 KiB (0%)
    Title                       : Ingles-SRT [CinemaniaHDD]
    Language                    : English
    Default                     : No
    Forced                      : No

    Menu
    00:00:00.000                : en:Chapter 01
    00:03:40.386                : en:Chapter 02
    00:06:22.173                : en:Chapter 03
    00:12:29.999                : en:Chapter 04
    00:18:21.600                : en:Chapter 05
    00:22:52.079                : en:Chapter 06
    00:30:14.687                : en:Chapter 07
    00:35:37.885                : en:Chapter 08
    00:39:50.971                : en:Chapter 09
    00:43:13.424                : en:Chapter 10
    00:50:54.509                : en:Chapter 11
    00:55:16.396                : en:Chapter 12
    01:00:03.099                : en:Chapter 13
    01:04:19.355                : en:Chapter 14
    01:10:16.670                : en:Chapter 15
    01:16:20.367                : en:Chapter 16
    01:20:29.491                : en:Chapter 17
    01:23:30.839                : en:Chapter 18

  • Peso: 24.9 GiB

Sinopsis

Descargar Bob Esponja: Un héroe fuera del agua (2015) REMUX 1080p Latino. Segunda película sobre el personaje marino más querido por niños y adultos, Bob Esponja.
El argumento gira en torno a Bob Esponja y sus inseparables amigos del mar, como son Patricio y la ardilla Arenita, y otros personajes de la serie en la que se basa, como Calamardo y Don Cangrejo. En esta ocasión Bob Esponja y cía se embarcan en una aventura en la que deberán encontrar una receta robada, lo que llevará a los personajes de Fondo Bikini hasta nuestra dimensión. Por lo que la película mezcla animación y escenas de acción real. Las escenas de animación están hechas tanto con CGI (imagen generada por ordenador) como en dibujo a mano.
En la dimensión real se tendrán que enfrentar al pirata Alameda Jack, al que da vida Antonio Banderas.

Ficha técnica

Video trailer de la película

Enlaces de descarga

Rip de Bluray

Descargar Bob Esponja: Un héroe fuera del agua (2015) REMUX 1080p Latino




Aportes de DPeliculasHDmega la pass es:dpeliculashdmega.org Aportes de CinemaniaHD la pass es:cinemaniahdd.com

Películas relacionadas

descargar Bob Esponja: Un héroe fuera del agua (2015) REMUX 1080p Latino Full 1080p 1080p gratis, Bob Esponja: Un héroe fuera del agua (2015) REMUX 1080p Latino Full 1080p mega 1 link, Bob Esponja: Un héroe fuera del agua (2015) REMUX 1080p Latino Full 1080p pelicula completa, descargar Bob Esponja: Un héroe fuera del agua (2015) REMUX 1080p Latino Full 1080p gratis en mega.

Bob Esponja: Un héroe fuera del agua (2015) REMUX 1080p Latino pelicula full hd, Bob Esponja: Un héroe fuera del agua (2015) REMUX 1080p Latino mega latino, Bob Esponja: Un héroe fuera del agua (2015) REMUX 1080p Latino 4k latino, Bob Esponja: Un héroe fuera del agua (2015) REMUX 1080p Latino pelicula completa, Bob Esponja: Un héroe fuera del agua (2015) REMUX 1080p Latino descargar gratis, descargar Bob Esponja: Un héroe fuera del agua (2015) REMUX 1080p Latino pelicula latino, Bob Esponja: Un héroe fuera del agua (2015) REMUX 1080p Latino 1 link mega, Bob Esponja: Un héroe fuera del agua (2015) REMUX 1080p Latino 1 link google drive, Bob Esponja: Un héroe fuera del agua (2015) REMUX 1080p Latino hd 1080p latino.
Comentarios 0