×

¿Problemas para descargar con Mozilla, EDGE? Deshabilita la opción "Abrir vinculos en una pestaña nueva" tal como lo muestra ésta imagen.

The Souvenir (2019) REMUX 1080p Latino

135 vistas

Información de The Souvenir (2019) REMUX 1080p Latino

Datos de la película

  • Calidad: Full 1080p
  • Audio: Se especifica abajo de la Sinopsis
  • Subtitulos: Español Latino SRT- FORZADOS SRT
  • Resolución: 1920x1080p
  • Formato: MKV
  • Codec: H.264
  • Encoder: Melkor
  • Mediainfo: Clic para Mostrar Datos Ver
  • El Souvenir (2019) REMUX 1080p Latino.mkv
    Format                      : Matroska
    Format version              : Version 4
    File size                   : 32.8 GiB
    Duration                    : 1 h 59 min
    Overall bit rate mode       : Variable
    Overall bit rate            : 39.2 Mb/s
    Movie name                  : The Souvenir (2019) CinemaniaHDD.Net
    Encoded date                : UTC 2021-08-12 05:28:07
    Writing application         : mkvmerge v56.1.0 ('My Friend') 64-bit
    Writing library             : libebml v1.4.2 + libmatroska v1.6.4
    Attachments                 : CINEMANIAHD.png

    Video
    ID                          : 1
    Format                      : AVC
    Format/Info                 : Advanced Video Codec
    Format profile              : High@L4.1
    Format settings             : CABAC / 4 Ref Frames
    Format settings, CABAC      : Yes
    Format settings, Reference  : 4 frames
    Codec ID                    : V_MPEG4/ISO/AVC
    Duration                    : 1 h 59 min
    Bit rate mode               : Variable
    Bit rate                    : 34.9 Mb/s
    Maximum bit rate            : 37.0 Mb/s
    Width                       : 1 920 pixels
    Height                      : 1 080 pixels
    Display aspect ratio        : 16:9
    Frame rate mode             : Constant
    Frame rate                  : 23.976 (24000/1001) FPS
    Color space                 : YUV
    Chroma subsampling          : 4:2:0
    Bit depth                   : 8 bits
    Scan type                   : Progressive
    Bits/(Pixel*Frame)          : 0.703
    Stream size                 : 29.2 GiB (89%)
    Title                       : REMUX 1080p [CinemaniaHDD]
    Language                    : English
    Default                     : Yes
    Forced                      : No

    Audio #1
    ID                          : 2
    Format                      : AC-3
    Format/Info                 : Audio Coding 3
    Commercial name             : Dolby Digital
    Codec ID                    : A_AC3
    Duration                    : 1 h 59 min
    Bit rate mode               : Constant
    Bit rate                    : 640 kb/s
    Channel(s)                  : 6 channels
    Channel layout              : L R C LFE Ls Rs
    Sampling rate               : 48.0 kHz
    Frame rate                  : 31.250 FPS (1536 SPF)
    Compression mode            : Lossy
    Stream size                 : 548 MiB (2%)
    Title                       : Español Latino AC3 [CinemaniaHDD]
    Language                    : Spanish
    Service kind                : Complete Main
    Default                     : Yes
    Forced                      : No

    Audio #2
    ID                          : 3
    Format                      : DTS XLL
    Format/Info                 : Digital Theater Systems
    Commercial name             : DTS-HD Master Audio
    Codec ID                    : A_DTS
    Duration                    : 1 h 59 min
    Bit rate mode               : Variable
    Bit rate                    : 2 942 kb/s
    Channel(s)                  : 6 channels
    Channel layout              : C L R Ls Rs LFE
    Sampling rate               : 48.0 kHz
    Frame rate                  : 93.750 FPS (512 SPF)
    Bit depth                   : 24 bits
    Compression mode            : Lossless
    Stream size                 : 2.46 GiB (8%)
    Title                       : Ingles [CinemaniaHDD]
    Language                    : English
    Default                     : No
    Forced                      : No

    Audio #3
    ID                          : 4
    Format                      : E-AC-3
    Format/Info                 : Enhanced AC-3
    Commercial name             : Dolby Digital Plus
    Codec ID                    : A_EAC3
    Duration                    : 1 h 59 min
    Bit rate mode               : Constant
    Bit rate                    : 640 kb/s
    Channel(s)                  : 6 channels
    Channel layout              : L R C LFE Ls Rs
    Sampling rate               : 48.0 kHz
    Frame rate                  : 31.250 FPS (1536 SPF)
    Compression mode            : Lossy
    Delay relative to video     : 7 s 204 ms
    Stream size                 : 548 MiB (2%)
    Title                       : Español Latino EAC3 [CinemaniaHDD]
    Language                    : Spanish
    Service kind                : Complete Main
    Default                     : Yes
    Forced                      : No

    Text #1
    ID                          : 5
    Format                      : UTF-8
    Codec ID                    : S_TEXT/UTF8
    Codec ID/Info               : UTF-8 Plain Text
    Duration                    : 1 h 46 min
    Bit rate                    : 0 b/s
    Count of elements           : 11
    Stream size                 : 444 Bytes (0%)
    Title                       : Forzados-SRT [CinemaniaHDD]
    Language                    : Spanish
    Default                     : Yes
    Forced                      : No

    Text #2
    ID                          : 6
    Format                      : UTF-8
    Codec ID                    : S_TEXT/UTF8
    Codec ID/Info               : UTF-8 Plain Text
    Duration                    : 1 h 58 min
    Bit rate                    : 48 b/s
    Count of elements           : 1490
    Stream size                 : 42.3 KiB (0%)
    Title                       : Español-SRT [CinemaniaHDD]
    Language                    : Spanish
    Default                     : No
    Forced                      : No

    Text #3
    ID                          : 7
    Format                      : UTF-8
    Codec ID                    : S_TEXT/UTF8
    Codec ID/Info               : UTF-8 Plain Text
    Duration                    : 1 h 59 min
    Bit rate                    : 61 b/s
    Count of elements           : 1425
    Stream size                 : 53.5 KiB (0%)
    Title                       : Ingles-SRT [CinemaniaHDD]
    Language                    : English
    Default                     : No
    Forced                      : No

    Menu
    00:00:00.000                : Chapter 01
    00:06:49.326                : Chapter 02
    00:13:51.664                : Chapter 03
    00:26:13.864                : Chapter 04
    00:29:55.585                : Chapter 05
    00:37:30.957                : Chapter 06
    00:45:39.695                : Chapter 07
    00:52:25.642                : Chapter 08
    01:00:26.748                : Chapter 09
    01:07:22.789                : Chapter 10
    01:15:17.263                : Chapter 11
    01:23:06.815                : Chapter 12
    01:32:12.235                : Chapter 13
    01:40:58.928                : Chapter 14
    01:45:06.091                : Chapter 15
    01:52:52.140                : Chapter 16

  • Peso: 32.8 GiB

Sinopsis

Descargar The Souvenir (2019) REMUX 1080p Latino. Julie (Honor Swinton Byrne), una estudiante de cine, decide celebrar una fiesta con sus compañeros en la que conoce a un tipo misterioso llamado Anthony (Tom Burke). Días después de conocerse, Anthony invita a Julie a tomar té, ofreciéndole la posibilidad de que se aloje junto a él unos cuantos días. Así comienza la primera relación seria de la estudiante, en una espiral de obsesión que la lleva a robar el dinero de sus padres para poder cumplir todos los sueños y deseos de Anthony, cuyas oscuras intenciones no parecen asustar a Julie.

Español Latino EAC3 & AC3 5.1 – Ingles DTS-HD 5.1

Ficha técnica

Video trailer de la película

Enlaces de descarga

Rip de Bluray

Descargar The Souvenir (2019) REMUX 1080p Latino




Aportes de DPeliculasHDmega la pass es:dpeliculashdmega.org Aportes de CinemaniaHD la pass es:cinemaniahdd.com
Guardado en : Drama , Remux , Romance

Películas relacionadas

descargar The Souvenir (2019) REMUX 1080p Latino Full 1080p 1080p gratis, The Souvenir (2019) REMUX 1080p Latino Full 1080p mega 1 link, The Souvenir (2019) REMUX 1080p Latino Full 1080p pelicula completa, descargar The Souvenir (2019) REMUX 1080p Latino Full 1080p gratis en mega.

The Souvenir (2019) REMUX 1080p Latino pelicula full hd, The Souvenir (2019) REMUX 1080p Latino mega latino, The Souvenir (2019) REMUX 1080p Latino 4k latino, The Souvenir (2019) REMUX 1080p Latino pelicula completa, The Souvenir (2019) REMUX 1080p Latino descargar gratis, descargar The Souvenir (2019) REMUX 1080p Latino pelicula latino, The Souvenir (2019) REMUX 1080p Latino 1 link mega, The Souvenir (2019) REMUX 1080p Latino 1 link google drive, The Souvenir (2019) REMUX 1080p Latino hd 1080p latino.
Comentarios 0