×

¿Problemas para descargar con Mozilla, EDGE? Deshabilita la opción "Abrir vinculos en una pestaña nueva" tal como lo muestra ésta imagen.

The Sound of Music (1965) REMUX 1080p Latino – CMHDD

158 vistas

Información de The Sound of Music (1965) REMUX 1080p Latino – CMHDD

Datos de la película

  • Calidad: Full 1080p
  • Audio: Español Latino AC3 5.1 BLURAY - Ingles DTS-HD Master 7.1 BLURAY
  • Subtitulos: Español Latino PGS
  • Resolución: 1920x1080p
  • Formato: MKV
  • Codec: H.264
  • Encoder: Dracarys
  • Mediainfo: Clic para Mostrar Datos Ver
  • Format                      : Matroska
    Format version              : Version 4
    File size                   : 33.9 GiB
    Duration                    : 2 h 54 min
    Overall bit rate mode       : Variable
    Overall bit rate            : 27.7 Mb/s
    Movie name                  : The Sound of Music (1965) REMUX 1080p Latino - CMHDD
    Encoded date                : UTC 2021-09-15 00:46:17
    Writing application         : mkvmerge v17.0.0 ('Be Ur Friend') 64-bit
    Writing library             : libebml v1.3.5 + libmatroska v1.4.8

    Video
    ID                          : 1
    Format                      : AVC
    Format/Info                 : Advanced Video Codec
    Format profile              : High@L4.1
    Format settings             : CABAC / 4 Ref Frames
    Format settings, CABAC      : Yes
    Format settings, Reference  : 4 frames
    Codec ID                    : V_MPEG4/ISO/AVC
    Duration                    : 2 h 54 min
    Bit rate mode               : Variable
    Bit rate                    : 22.9 Mb/s
    Maximum bit rate            : 32.5 Mb/s
    Width                       : 1 920 pixels
    Height                      : 1 080 pixels
    Display aspect ratio        : 16:9
    Frame rate mode             : Constant
    Frame rate                  : 23.976 (24000/1001) FPS
    Color space                 : YUV
    Chroma subsampling          : 4:2:0
    Bit depth                   : 8 bits
    Scan type                   : Progressive
    Bits/(Pixel*Frame)          : 0.460
    Stream size                 : 27.9 GiB (82%)
    Default                     : Yes
    Forced                      : No
    Color range                 : Limited
    Color primaries             : BT.709
    Transfer characteristics    : BT.709
    Matrix coefficients         : BT.709

    Audio #1
    ID                          : 2
    Format                      : DTS XLL
    Format/Info                 : Digital Theater Systems
    Commercial name             : DTS-HD Master Audio
    Codec ID                    : A_DTS
    Duration                    : 2 h 54 min
    Bit rate mode               : Variable
    Bit rate                    : 4 418 kb/s
    Channel(s)                  : 8 channels
    Channel layout              : C L R LFE Lb Rb Lss Rss
    Sampling rate               : 48.0 kHz
    Frame rate                  : 93.750 FPS (512 SPF)
    Bit depth                   : 24 bits
    Compression mode            : Lossless
    Stream size                 : 5.39 GiB (16%)
    Language                    : English
    Default                     : No
    Forced                      : No

    Audio #2
    ID                          : 3
    Format                      : AC-3
    Format/Info                 : Audio Coding 3
    Commercial name             : Dolby Digital
    Codec ID                    : A_AC3
    Duration                    : 2 h 54 min
    Bit rate mode               : Constant
    Bit rate                    : 448 kb/s
    Channel(s)                  : 6 channels
    Channel layout              : L R C LFE Ls Rs
    Sampling rate               : 48.0 kHz
    Frame rate                  : 31.250 FPS (1536 SPF)
    Compression mode            : Lossy
    Stream size                 : 560 MiB (2%)
    Language                    : Spanish
    Service kind                : Complete Main
    Default                     : Yes
    Forced                      : No

    Text
    ID                          : 4
    Format                      : PGS
    Muxing mode                 : zlib
    Codec ID                    : S_HDMV/PGS
    Codec ID/Info               : Picture based subtitle format used on BDs/HD-DVDs
    Duration                    : 2 h 51 min
    Bit rate                    : 51.0 kb/s
    Count of elements           : 4040
    Stream size                 : 62.7 MiB (0%)
    Language                    : Spanish
    Default                     : No
    Forced                      : No

    Menu
    00:00:00.000                : en:Chapter 1
    00:01:13.698                : en:Chapter 2
    00:02:20.014                : en:Chapter 3
    00:04:46.369                : en:Chapter 4
    00:07:24.944                : en:Chapter 5
    00:10:45.853                : en:Chapter 6
    00:14:28.993                : en:Chapter 7
    00:18:39.368                : en:Chapter 8
    00:22:50.619                : en:Chapter 9
    00:24:28.842                : en:Chapter 10
    00:29:41.112                : en:Chapter 11
    00:32:35.745                : en:Chapter 12
    00:35:00.306                : en:Chapter 13
    00:36:38.487                : en:Chapter 14
    00:38:53.664                : en:Chapter 15
    00:43:50.044                : en:Chapter 16
    00:49:25.712                : en:Chapter 17
    00:53:43.428                : en:Chapter 18
    00:56:52.617                : en:Chapter 19
    01:02:51.517                : en:Chapter 20
    01:04:34.704                : en:Chapter 21
    01:09:10.354                : en:Chapter 22
    01:10:53.332                : en:Chapter 23
    01:12:47.363                : en:Chapter 24
    01:14:36.513                : en:Chapter 25
    01:17:13.629                : en:Chapter 26
    01:18:53.562                : en:Chapter 27
    01:24:59.719                : en:Chapter 28
    01:28:06.322                : en:Chapter 29
    01:30:18.162                : en:Chapter 30
    01:33:20.803                : en:Chapter 31
    01:38:12.011                : en:Chapter 32
    01:40:14.383                : en:Chapter 33
    01:41:27.915                : en:Chapter 34
    01:42:48.787                : en:Chapter 35
    01:44:40.899                : en:Chapter 36
    01:50:09.227                : en:Chapter 37
    01:52:43.757                : en:Chapter 38
    01:55:18.494                : en:Chapter 39
    02:00:15.082                : en:Chapter 40
    02:03:43.707                : en:Chapter 41
    02:07:28.641                : en:Chapter 42
    02:11:37.180                : en:Chapter 43
    02:15:15.315                : en:Chapter 44
    02:16:02.154                : en:Chapter 45
    02:18:45.275                : en:Chapter 46
    02:21:55.465                : en:Chapter 47
    02:22:51.813                : en:Chapter 48
    02:25:35.226                : en:Chapter 49
    02:26:13.264                : en:Chapter 50
    02:29:18.783                : en:Chapter 51
    02:34:45.985                : en:Chapter 52
    02:36:02.978                : en:Chapter 53
    02:39:41.154                : en:Chapter 54
    02:41:54.454                : en:Chapter 55
    02:43:48.527                : en:Chapter 56
    02:45:31.379                : en:Chapter 57
    02:49:11.766                : en:Chapter 58
    02:52:49.317                : en:Chapter 59
    02:54:01.639                : en:Chapter 60
     

  • Peso: 33.9 GiB

Sinopsis

Austria, 1938. María es una alegre novicia que abandona la abadía de Estrasburgo para convertirse en la institutriz de los siete hijos de un militar retirado, el capitán von Trapp, viudo desde hace poco tiempo. La casa de los von Trapp funciona como un cuartel, pero María consigue devolver la alegría a los niños y ganarse su respeto y cariño.

Ficha técnica

Video trailer de la película

Enlaces de descarga

Rip de Bluray

Descargar The Sound of Music (1965) REMUX 1080p Latino – CMHDD


Aportes de DPeliculasHDmega la pass es:dpeliculashdmega.org Aportes de CinemaniaHD la pass es:cinemaniahdd.com
Guardado en : Drama , Familia , Música , Romance

Películas relacionadas

  • Un mundo extraño (2022) HD 1080p Latino

    Un mundo extraño (2022) HD 1080p Latino

    2022
    Un mundo extraño (2022) HD 1080p Latino

    1h 42m 2022

    Descargar Un mundo extraño (2022) HD 1080p Latino. Los Clades son una familia conocida en todo el mundo,...

    Director: Thai Bettistea

    Género: Animación

    Actores: Reed Buck

  • Un mundo extraño (2022) REMUX 1080p Latino

    Un mundo extraño (2022) REMUX 1080p Latino

    2022
    Un mundo extraño (2022) REMUX 1080p Latino

    1h 42m 2022

    Descargar Un mundo extraño (2022) REMUX 1080p. Un viaje a una tierra inexplorada y traicionera en la...

    Director: Thai Bettistea

    Género: Animación

    Actores: Reed Buck

  • Stromboli (2022) NF WEB-DL 1080p Latino

    Stromboli (2022) NF WEB-DL 1080p Latino

    2022
    Stromboli (2022) NF WEB-DL 1080p Latino

    1h 26m 2022

    Descargar Stromboli (2022) NF WEB-DL 1080p Latino. Sara, una mujer que se ha divorciado recientemente,...

    Director: Michiel van Erp

    Género: Drama

    Actores: Tim McInnerny

descargar The Sound of Music (1965) REMUX 1080p Latino – CMHDD Full 1080p 1080p gratis, The Sound of Music (1965) REMUX 1080p Latino – CMHDD Full 1080p mega 1 link, The Sound of Music (1965) REMUX 1080p Latino – CMHDD Full 1080p pelicula completa, descargar The Sound of Music (1965) REMUX 1080p Latino – CMHDD Full 1080p gratis en mega.

The Sound of Music (1965) REMUX 1080p Latino – CMHDD pelicula full hd, The Sound of Music (1965) REMUX 1080p Latino – CMHDD mega latino, The Sound of Music (1965) REMUX 1080p Latino – CMHDD 4k latino, The Sound of Music (1965) REMUX 1080p Latino – CMHDD pelicula completa, The Sound of Music (1965) REMUX 1080p Latino – CMHDD descargar gratis, descargar The Sound of Music (1965) REMUX 1080p Latino – CMHDD pelicula latino, The Sound of Music (1965) REMUX 1080p Latino – CMHDD 1 link mega, The Sound of Music (1965) REMUX 1080p Latino – CMHDD 1 link google drive, The Sound of Music (1965) REMUX 1080p Latino – CMHDD hd 1080p latino.