×

¿Problemas para descargar con Mozilla, EDGE? Deshabilita la opción "Abrir vinculos en una pestaña nueva" tal como lo muestra ésta imagen.

Alma Maldita (2018) WEB-DL 1080p latino

1.726 vistas

Información de Alma Maldita (2018) WEB-DL 1080p latino

Datos de la película

  • Calidad: WEBDL
  • Audio: Se especifica abajo de la Sinopsis
  • Subtitulos: No
  • Resolución: 1920x804
  • Formato: MKV
  • Codec: H.264
  • Encoder: cinemaniahdd
  • Mediainfo: Clic para Mostrar Datos Ver
  • The Soul Conductor (2018) WEB-DL 1080p Latino.mkv
    Format                      : Matroska
    Format version              : Version 4
    File size                   : 3.11 GiB
    Duration                    : 1 h 26 min
    Overall bit rate            : 5 155 kb/s
    Movie name                  : The Soul Conductor (2018) - CinemaniaHDD.Net
    Encoded date                : UTC 2019-11-30 05:13:32
    Writing application         : mkvmerge v38.0.0 ('The Silent Type') 64-bit
    Writing library             : libebml v1.3.9 + libmatroska v1.5.2

    Video
    ID                          : 1
    Format                      : AVC
    Format/Info                 : Advanced Video Codec
    Format profile              : High@L4
    Format settings             : CABAC / 5 Ref Frames
    Format settings, CABAC      : Yes
    Format settings, ReFrames   : 5 frames
    Codec ID                    : V_MPEG4/ISO/AVC
    Duration                    : 1 h 26 min
    Bit rate                    : 4 513 kb/s
    Width                       : 1 920 pixels
    Height                      : 804 pixels
    Display aspect ratio        : 2.40:1
    Frame rate mode             : Constant
    Frame rate                  : 25.000 FPS
    Color space                 : YUV
    Chroma subsampling          : 4:2:0
    Bit depth                   : 8 bits
    Scan type                   : Progressive
    Bits/(Pixel*Frame)          : 0.117
    Stream size                 : 2.72 GiB (88%)
    Title                       : CinemaniaHDD
    Language                    : English
    Default                     : Yes
    Forced                      : No
    Color range                 : Limited
    Color primaries             : BT.709
    Transfer characteristics    : BT.709
    Matrix coefficients         : BT.709

    Audio #1
    ID                          : 2
    Format                      : AC-3
    Format/Info                 : Audio Coding 3
    Commercial name             : Dolby Digital
    Codec ID                    : A_AC3
    Duration                    : 1 h 26 min
    Bit rate mode               : Constant
    Bit rate                    : 256 kb/s
    Channel(s)                  : 2 channels
    Channel layout              : L R
    Sampling rate               : 48.0 kHz
    Frame rate                  : 31.250 FPS (1536 SPF)
    Bit depth                   : 16 bits
    Compression mode            : Lossy
    Stream size                 : 158 MiB (5%)
    Title                       : Español latino [CinemaniaHDD]
    Language                    : Spanish
    Service kind                : Complete Main
    Default                     : Yes
    Forced                      : No

    Audio #2
    ID                          : 3
    Format                      : AC-3
    Format/Info                 : Audio Coding 3
    Commercial name             : Dolby Digital
    Codec ID                    : A_AC3
    Duration                    : 1 h 26 min
    Bit rate mode               : Constant
    Bit rate                    : 384 kb/s
    Channel(s)                  : 6 channels
    Channel layout              : L R C LFE Ls Rs
    Sampling rate               : 48.0 kHz
    Frame rate                  : 31.250 FPS (1536 SPF)
    Bit depth                   : 16 bits
    Compression mode            : Lossy
    Stream size                 : 237 MiB (7%)
    Title                       : Ruso [CinemaniaHDD]
    Language                    : Russian
    Service kind                : Complete Main
    Default                     : No
    Forced                      : No

    Menu
    00:00:00.000                : en:Глава 1
    00:05:18.760                : en:Глава 2
    00:11:59.000                : en:Глава 3
    00:18:06.520                : en:Глава 4
    00:26:13.960                : en:Глава 5
    00:33:08.400                : en:Глава 6
    00:41:30.160                : en:Глава 7
    00:47:55.720                : en:Глава 8
    00:55:33.760                : en:Глава 9
    01:01:29.280                : en:Глава 10
    01:07:41.280                : en:Глава 11
    01:15:00.000                : en:Глава 12

     

  • Peso: 3.11 GiB

Sinopsis

Katya tiene un poderoso don: ve fantasmas. Cuando su hermana gemela desaparece, Katya comienza una búsqueda desesperada. La policía insiste en que su hermana no existe, que es producto de la retorcida imaginación de Katya. Sin embargo, durante su búsqueda, Katya descubre que hay un asesino en serie suelto en las calles, y su hermana es una de sus víctimas. Todavía hay esperanza de salvarla, pero en una ciudad oscura y misteriosa llena de secretos, no puedes confiar en nadie. Ni siquiera a ti mismo …

Español Latino AC3 2.0 DVD – Ruso AC3 5.1 WEB-DL

Ficha técnica

Video trailer de la película

Enlaces de descarga

Rip de Bluray

Descargar Alma Maldita (2018) WEB-DL 1080p latino




Aportes de DPeliculasHDmega la pass es:dpeliculashdmega.org Aportes de CinemaniaHD la pass es:cinemaniahdd.com
Guardado en : Suspenso , Terror

Películas relacionadas

  • Transfusion (2023) WEB-DL 4K UHD HDR Latino

    Transfusion (2023) WEB-DL 4K UHD HDR Latino

    2023
    Transfusion (2023) WEB-DL 4K UHD HDR Latino

    1h 45m 2023

    Descargar Transfusion (2023) WEB-DL 4K UHD HDR Latino. Un antiguo agente de las Fuerzas Especiales se...

    Director: Matt Nable

    Género: 4K HDR

    Actores: Trystan Go

  • Transfusion (2023) WEB-DL 1080p Latino

    Transfusion (2023) WEB-DL 1080p Latino

    2023
    Transfusion (2023) WEB-DL 1080p Latino

    1h 45m 2023

    Descargar Transfusion (2023) WEB-DL 1080p Latino. Un antiguo agente de las Fuerzas Especiales se ve empujado...

    Director: Matt Nable

    Género: Crimen

    Actores: Trystan Go

  • Asústame (2020) HD 1080p Latino

    Asústame (2020) HD 1080p Latino

    2020
    Asústame (2020) HD 1080p Latino

    1h 44m 2020

    Descargar Asústame (2020) HD 1080p Latino. Durante un corte de energía, dos extraños cuentan historias...

    Director: Josh Ruben

    Género: Comedia

    Actores: Rebecca Drysdale

  • Asústame (2020) PLACEBO Full HD 1080p Latino

    Asústame (2020) PLACEBO Full HD 1080p Latino

    2020
    Asústame (2020) PLACEBO Full HD 1080p Latino

    1h 44m 2020

    Descargar Asústame (2020) PLACEBO Full HD 1080p Latino. Durante un corte de energía, dos extraños...

    Director: Josh Ruben

    Género: Comedia

    Actores: Rebecca Drysdale

descargar Alma Maldita (2018) WEB-DL 1080p latino WEBDL 1080p gratis, Alma Maldita (2018) WEB-DL 1080p latino WEBDL mega 1 link, Alma Maldita (2018) WEB-DL 1080p latino WEBDL pelicula completa, descargar Alma Maldita (2018) WEB-DL 1080p latino WEBDL gratis en mega.

Alma Maldita (2018) WEB-DL 1080p latino pelicula full hd, Alma Maldita (2018) WEB-DL 1080p latino mega latino, Alma Maldita (2018) WEB-DL 1080p latino 4k latino, Alma Maldita (2018) WEB-DL 1080p latino pelicula completa, Alma Maldita (2018) WEB-DL 1080p latino descargar gratis, descargar Alma Maldita (2018) WEB-DL 1080p latino pelicula latino, Alma Maldita (2018) WEB-DL 1080p latino 1 link mega, Alma Maldita (2018) WEB-DL 1080p latino 1 link google drive, Alma Maldita (2018) WEB-DL 1080p latino hd 1080p latino.
Comentarios 0