×

¿Problemas para descargar con Mozilla, EDGE? Deshabilita la opción "Abrir vinculos en una pestaña nueva" tal como lo muestra ésta imagen.

The Sopranos (2000) Segunda Temporada REMUX 1080p Latino – CMHDD

236 vistas

Información de The Sopranos (2000) Segunda Temporada REMUX 1080p Latino – CMHDD

Datos de la película

  • Calidad: Full 1080p
  • Audio: Español Latino DTS 2.0 BLURAY - Ingles DTS 5.1 BLURAY
  • Subtitulos: Español Latino PGS
  • Resolución: 1920x1080p
  • Formato: MKV
  • Codec: H.264
  • Encoder: Dracarys
  • Mediainfo: Clic para Mostrar Datos Ver
  • Format                      : Matroska
    Format version              : Version 4
    File size                   : 10.0 GiB
    Duration                    : 50 min 21 s
    Overall bit rate mode       : Variable
    Overall bit rate            : 28.5 Mb/s
    Movie name                  : The Sopranos (2000) [S02E01] REMUX 1080p Latino - CMHDD
    Encoded date                : UTC 2021-05-06 04:40:12
    Writing application         : mkvmerge v56.1.0 ('My Friend') 64-bit
    Writing library             : libebml v1.4.2 + libmatroska v1.6.4

    Video
    ID                          : 1
    Format                      : AVC
    Format/Info                 : Advanced Video Codec
    Format profile              : High@L4.1
    Format settings             : CABAC / 2 Ref Frames
    Format settings, CABAC      : Yes
    Format settings, Reference  : 2 frames
    Codec ID                    : V_MPEG4/ISO/AVC
    Duration                    : 50 min 21 s
    Bit rate mode               : Variable
    Bit rate                    : 25.8 Mb/s
    Width                       : 1 920 pixels
    Height                      : 1 080 pixels
    Display aspect ratio        : 16:9
    Frame rate mode             : Constant
    Frame rate                  : 23.976 (24000/1001) FPS
    Color space                 : YUV
    Chroma subsampling          : 4:2:0
    Bit depth                   : 8 bits
    Scan type                   : Progressive
    Bits/(Pixel*Frame)          : 0.519
    Stream size                 : 9.08 GiB (91%)
    Default                     : Yes
    Forced                      : No

    Audio #1
    ID                          : 2
    Format                      : DTS XLL
    Format/Info                 : Digital Theater Systems
    Commercial name             : DTS-HD Master Audio
    Codec ID                    : A_DTS
    Duration                    : 50 min 21 s
    Bit rate mode               : Variable
    Bit rate                    : 2 353 kb/s
    Channel(s)                  : 6 channels
    Channel layout              : C L R Ls Rs LFE
    Sampling rate               : 48.0 kHz
    Frame rate                  : 93.750 FPS (512 SPF)
    Bit depth                   : 16 bits
    Compression mode            : Lossless
    Stream size                 : 847 MiB (8%)
    Language                    : English
    Default                     : No
    Forced                      : No

    Audio #2
    ID                          : 3
    Format                      : DTS
    Format/Info                 : Digital Theater Systems
    Codec ID                    : A_DTS
    Duration                    : 50 min 21 s
    Bit rate mode               : Constant
    Bit rate                    : 255 kb/s
    Channel(s)                  : 2 channels
    Channel layout              : Lt Rt
    Sampling rate               : 48.0 kHz
    Frame rate                  : 93.750 FPS (512 SPF)
    Bit depth                   : 16 bits
    Compression mode            : Lossy
    Stream size                 : 91.9 MiB (1%)
    Language                    : Spanish
    Default                     : Yes
    Forced                      : No

    Text
    ID                          : 4
    Format                      : PGS
    Muxing mode                 : zlib
    Codec ID                    : S_HDMV/PGS
    Codec ID/Info               : Picture based subtitle format used on BDs/HD-DVDs
    Duration                    : 46 min 59 s
    Bit rate                    : 84.3 kb/s
    Count of elements           : 1324
    Stream size                 : 28.3 MiB (0%)
    Language                    : Spanish
    Default                     : No
    Forced                      : No

  • Peso: 126 GiB

Sinopsis

Los Soprano (The Sopranos) es una serie de televisión estadounidense creada y producida por David Chase. La serie se estrenó en Estados Unidos el 10 de enero de 1999 por el canal de televisión por cable HBO, que la emitió ininterrumpidamente hasta su desenlace, el 10 de junio de 2007. La trama de la serie gira en torno al mafioso de Nueva Jersey Tony Soprano (James Gandolfini) y las dificultades que enfrenta tanto en su hogar como en la organización criminal que dirige. A su vez, la serie también se centra en la historia de los personajes cercanos a Tony, especialmente su esposa Carmela (Edie Falco) y su sobrino y protegido Christopher Moltisanti (Michael Imperioli).

Ficha técnica

  • Titulo original: The Sopranos
  • Fecha de lanzamiento: 10-01-1999 (US)
  • Director: David Chase
  • Género: Drama

Video trailer de la película

Enlaces de descarga

Rip de Bluray

Descargar The Sopranos (2000) Segunda Temporada REMUX 1080p Latino – CMHDD


Aportes de DPeliculasHDmega la pass es:dpeliculashdmega.org Aportes de CinemaniaHD la pass es:cinemaniahdd.com
Guardado en : Drama

Películas relacionadas

descargar The Sopranos (2000) Segunda Temporada REMUX 1080p Latino – CMHDD Full 1080p 1080p gratis, The Sopranos (2000) Segunda Temporada REMUX 1080p Latino – CMHDD Full 1080p mega 1 link, The Sopranos (2000) Segunda Temporada REMUX 1080p Latino – CMHDD Full 1080p pelicula completa, descargar The Sopranos (2000) Segunda Temporada REMUX 1080p Latino – CMHDD Full 1080p gratis en mega.

The Sopranos (2000) Segunda Temporada REMUX 1080p Latino – CMHDD pelicula full hd, The Sopranos (2000) Segunda Temporada REMUX 1080p Latino – CMHDD mega latino, The Sopranos (2000) Segunda Temporada REMUX 1080p Latino – CMHDD 4k latino, The Sopranos (2000) Segunda Temporada REMUX 1080p Latino – CMHDD pelicula completa, The Sopranos (2000) Segunda Temporada REMUX 1080p Latino – CMHDD descargar gratis, descargar The Sopranos (2000) Segunda Temporada REMUX 1080p Latino – CMHDD pelicula latino, The Sopranos (2000) Segunda Temporada REMUX 1080p Latino – CMHDD 1 link mega, The Sopranos (2000) Segunda Temporada REMUX 1080p Latino – CMHDD 1 link google drive, The Sopranos (2000) Segunda Temporada REMUX 1080p Latino – CMHDD hd 1080p latino.