×

¿Problemas para descargar con Mozilla, EDGE? Deshabilita la opción "Abrir vinculos en una pestaña nueva" tal como lo muestra ésta imagen.

The Son (2022) WEB-DL 4K HDR Latino – CMHDD

127 vistas

Información de The Son (2022) WEB-DL 4K HDR Latino – CMHDD

Datos de la película

  • Calidad: WEBDL
  • Audio: Español Latino AC3 5.1 WEB-DL - Ingles AC3 5.1 WEB-DL
  • Subtitulos: Español Latino SRT
  • Resolución: 3840x1600p
  • Formato:
  • Codec: H.264
  • Encoder: Dracarys
  • Mediainfo: Clic para Mostrar Datos Ver
  • Format                      : Matroska
    Format version              : Version 4
    File size                   : 14.0 GiB
    Duration                    : 2 h 3 min
    Overall bit rate            : 16.2 Mb/s
    Movie name                  : The Son (2022) WEB-DL 4K HDR Latino - CMHDD
    Encoded date                : UTC 2023-12-18 04:13:03
    Writing application         : mkvmerge v47.0.0 ('Black Flag') 64-bit
    Writing library             : libebml v1.3.10 + libmatroska v1.5.2

    Video
    ID                          : 1
    Format                      : HEVC
    Format/Info                 : High Efficiency Video Coding
    Format profile              : Main 10@L5@Main
    HDR format                  : SMPTE ST 2094 App 4, Version 1, HDR10+ Profile B compatible
    Codec ID                    : V_MPEGH/ISO/HEVC
    Duration                    : 2 h 3 min
    Bit rate                    : 14.6 Mb/s
    Width                       : 3 840 pixels
    Height                      : 1 600 pixels
    Display aspect ratio        : 2.40:1
    Frame rate mode             : Constant
    Frame rate                  : 24.000 FPS
    Color space                 : YUV
    Chroma subsampling          : 4:2:0
    Bit depth                   : 10 bits
    Bits/(Pixel*Frame)          : 0.099
    Stream size                 : 12.6 GiB (90%)
    Language                    : English
    Default                     : Yes
    Forced                      : No
    Color range                 : Limited
    Color primaries             : BT.2020
    Transfer characteristics    : PQ
    Matrix coefficients         : BT.2020 non-constant
    Mastering display color pri : Display P3
    Mastering display luminance : min: 0.0001 cd/m2, max: 1000 cd/m2
    Maximum Content Light Level : 918 cd/m2
    Maximum Frame-Average Light : 111 cd/m2

    Audio #1
    ID                          : 2
    Format                      : AC-3
    Format/Info                 : Audio Coding 3
    Commercial name             : Dolby Digital
    Codec ID                    : A_AC3
    Duration                    : 2 h 2 min
    Bit rate mode               : Constant
    Bit rate                    : 640 kb/s
    Channel(s)                  : 6 channels
    Channel layout              : L R C LFE Ls Rs
    Sampling rate               : 48.0 kHz
    Frame rate                  : 31.250 FPS (1536 SPF)
    Compression mode            : Lossy
    Delay relative to video     : 22 s 0 ms
    Stream size                 : 562 MiB (4%)
    Language                    : Spanish
    Service kind                : Complete Main
    Default                     : Yes
    Forced                      : No

    Audio #2
    ID                          : 3
    Format                      : E-AC-3
    Format/Info                 : Enhanced AC-3
    Commercial name             : Dolby Digital Plus
    Codec ID                    : A_EAC3
    Duration                    : 2 h 3 min
    Bit rate mode               : Constant
    Bit rate                    : 1 024 kb/s
    Channel(s)                  : 6 channels
    Channel layout              : L R C LFE Ls Rs
    Sampling rate               : 48.0 kHz
    Frame rate                  : 31.250 FPS (1536 SPF)
    Compression mode            : Lossy
    Stream size                 : 901 MiB (6%)
    Language                    : English
    Service kind                : Complete Main
    Default                     : No
    Forced                      : No

    Text #1
    ID                          : 4
    Format                      : UTF-8
    Codec ID                    : S_TEXT/UTF8
    Codec ID/Info               : UTF-8 Plain Text
    Duration                    : 2 h 1 min
    Bit rate                    : 56 b/s
    Frame rate                  : 0.224 FPS
    Count of elements           : 1636
    Stream size                 : 50.1 KiB (0%)
    Language                    : Spanish
    Default                     : No
    Forced                      : No

    Text #2
    ID                          : 5
    Format                      : PGS
    Muxing mode                 : zlib
    Codec ID                    : S_HDMV/PGS
    Codec ID/Info               : Picture based subtitle format used on BDs/HD-DVDs
    Duration                    : 2 h 1 min
    Bit rate                    : 33.9 kb/s
    Frame rate                  : 0.449 FPS
    Count of elements           : 3272
    Stream size                 : 29.5 MiB (0%)
    Language                    : Spanish
    Default                     : No
    Forced                      : No

    Menu
    00:00:23.458                : en:Chapter 01
    00:10:59.332                : en:Chapter 02
    00:17:51.998                : en:Chapter 03
    00:25:26.123                : en:Chapter 04
    00:31:23.289                : en:Chapter 05
    00:38:49.622                : en:Chapter 06
    00:45:31.246                : en:Chapter 07
    00:52:31.079                : en:Chapter 08
    00:59:41.246                : en:Chapter 09
    01:05:15.370                : en:Chapter 10
    01:10:12.412                : en:Chapter 11
    01:17:38.953                : en:Chapter 12
    01:25:07.161                : en:Chapter 13
    01:31:40.327                : en:Chapter 14
    01:40:14.243                : en:Chapter 15
    01:48:39.326                : en:Chapter 16

     

  • Peso: 14.0 GiB

Sinopsis

La ajetreada vida de Peter junto a su nueva pareja Emma y su bebé se convierte en un caos cuando su ex esposa Kate reaparece con su hijo adolescente, Nicholas, un joven problemático con el que es difícil comunicarse, por agresivo y distante, y que acaba de abandonar la escuela.

Ficha técnica

Video trailer de la película

Enlaces de descarga

Rip de Bluray

Descargar The Son (2022) WEB-DL 4K HDR Latino – CMHDD




Aportes de DPeliculasHDmega la pass es:dpeliculashdmega.org Aportes de CinemaniaHD la pass es:cinemaniahdd.com Aportes recientes:cinemaniahdd.net
Guardado en : Drama

Películas relacionadas

  • El Oso (2022) Temporada 2 WEB-DL 1080p Latino

    El Oso (2022) Temporada 2 WEB-DL 1080p Latino

    2022
    El Oso (2022) Temporada 2 WEB-DL 1080p Latino

    0h 0m 2022

    Descargar El Oso (2022) Temporada 2 WEB-DL 1080p Latino. Carmy, un joven chef de alta cocina, vuelve...

    Director: Christopher Storer

    Género: Comedia

    Actores: Matty Matheson

  • El Oso (2022) Temporada 1 WEB-DL 1080p Latino

    El Oso (2022) Temporada 1 WEB-DL 1080p Latino

    2022
    El Oso (2022) Temporada 1 WEB-DL 1080p Latino

    0h 0m 2022

    Descargar El Oso (2022) Temporada 1 WEB-DL 1080p Latino. Carmy, un joven chef de alta cocina, vuelve...

    Director: Christopher Storer

    Género: Comedia

    Actores: Matty Matheson

  • Wolves (2022) AMZN WEB-DL 1080p Latino

    Wolves (2022) AMZN WEB-DL 1080p Latino

    2022
    Wolves (2022) AMZN WEB-DL 1080p Latino

    1h 43m 2022

    Un joven solitario se depara con una serie de crímenes sin resolver, que involucran animales mutilados...

    Director: Danny Dunlop

    Género: Crimen

    Actores: Rod Keith

descargar The Son (2022) WEB-DL 4K HDR Latino – CMHDD WEBDL 1080p gratis, The Son (2022) WEB-DL 4K HDR Latino – CMHDD WEBDL mega 1 link, The Son (2022) WEB-DL 4K HDR Latino – CMHDD WEBDL pelicula completa, descargar The Son (2022) WEB-DL 4K HDR Latino – CMHDD WEBDL gratis en mega.

The Son (2022) WEB-DL 4K HDR Latino – CMHDD pelicula full hd, The Son (2022) WEB-DL 4K HDR Latino – CMHDD mega latino, The Son (2022) WEB-DL 4K HDR Latino – CMHDD 4k latino, The Son (2022) WEB-DL 4K HDR Latino – CMHDD pelicula completa, The Son (2022) WEB-DL 4K HDR Latino – CMHDD descargar gratis, descargar The Son (2022) WEB-DL 4K HDR Latino – CMHDD pelicula latino, The Son (2022) WEB-DL 4K HDR Latino – CMHDD 1 link mega, The Son (2022) WEB-DL 4K HDR Latino – CMHDD 1 link google drive, The Son (2022) WEB-DL 4K HDR Latino – CMHDD hd 1080p latino.
Comentarios 0