×

¿Problemas para descargar con Mozilla, EDGE? Deshabilita la opción "Abrir vinculos en una pestaña nueva" tal como lo muestra ésta imagen.

The Social Network (2010) REMUX 4K HDR Latino – CMHDD

129 vistas

Información de The Social Network (2010) REMUX 4K HDR Latino – CMHDD

Datos de la película

  • Calidad: 4K HDR
  • Audio: Español Latino AC3 5.1 BLURAY - Ingles DTS 5.1 BLURAY
  • Subtitulos: Español Latino PGS
  • Resolución: 3840x2160p
  • Formato: MKV
  • Codec: H.264
  • Encoder: Dracarys
  • Mediainfo: Clic para Mostrar Datos Ver
  • Format                      : Matroska
    Format version              : Version 4
    File size                   : 32.9 GiB
    Duration                    : 2 h 0 min
    Overall bit rate mode       : Variable
    Overall bit rate            : 39.1 Mb/s
    Movie name                  : The Social Network (2010) REMUX 4K HDR Latino - CMHDD
    Encoded date                : UTC 2021-09-29 00:53:00
    Writing application         : mkvmerge v17.0.0 ('Be Ur Friend') 64-bit
    Writing library             : libebml v1.3.5 + libmatroska v1.4.8

    Video
    ID                          : 1
    Format                      : HEVC
    Format/Info                 : High Efficiency Video Coding
    Format profile              : Main 10@L5.1@High
    HDR format                  : SMPTE ST 2086, HDR10 compatible
    Codec ID                    : V_MPEGH/ISO/HEVC
    Duration                    : 2 h 0 min
    Bit rate                    : 31.9 Mb/s
    Width                       : 3 840 pixels
    Height                      : 2 160 pixels
    Display aspect ratio        : 16:9
    Frame rate mode             : Constant
    Frame rate                  : 23.976 (24000/1001) FPS
    Color space                 : YUV
    Chroma subsampling          : 4:2:0 (Type 2)
    Bit depth                   : 10 bits
    Bits/(Pixel*Frame)          : 0.160
    Stream size                 : 26.8 GiB (82%)
    Default                     : Yes
    Forced                      : No
    Color range                 : Limited
    Color primaries             : BT.2020
    Transfer characteristics    : PQ
    Matrix coefficients         : BT.2020 non-constant
    Mastering display color pri : Display P3
    Mastering display luminance : min: 0.0001 cd/m2, max: 1000 cd/m2
    Maximum Content Light Level : 1033 cd/m2
    Maximum Frame-Average Light : 311 cd/m2

    Audio #1
    ID                          : 2
    Format                      : MLP FBA 16-ch
    Format/Info                 : Meridian Lossless Packing FBA with 16-channel presentation
    Commercial name             : Dolby TrueHD with Dolby Atmos
    Codec ID                    : A_TRUEHD
    Duration                    : 2 h 0 min
    Bit rate mode               : Variable
    Bit rate                    : 3 606 kb/s
    Maximum bit rate            : 5 487 kb/s
    Channel(s)                  : 8 channels
    Channel layout              : L R C LFE Ls Rs Lb Rb
    Sampling rate               : 48.0 kHz
    Frame rate                  : 1 200.000 FPS (40 SPF)
    Compression mode            : Lossless
    Stream size                 : 3.03 GiB (9%)
    Language                    : English
    Default                     : No
    Forced                      : No
    Number of dynamic objects   : 11
    Bed channel count           : 1 channel
    Bed channel configuration   : LFE

    Audio #2
    ID                          : 3
    Format                      : AC-3
    Format/Info                 : Audio Coding 3
    Commercial name             : Dolby Digital
    Codec ID                    : A_AC3
    Duration                    : 2 h 0 min
    Bit rate mode               : Constant
    Bit rate                    : 640 kb/s
    Channel(s)                  : 6 channels
    Channel layout              : L R C LFE Ls Rs
    Sampling rate               : 48.0 kHz
    Frame rate                  : 31.250 FPS (1536 SPF)
    Compression mode            : Lossy
    Stream size                 : 551 MiB (2%)
    Language                    : English
    Service kind                : Complete Main
    Default                     : No
    Forced                      : No

    Audio #3
    ID                          : 4
    Format                      : DTS XLL
    Format/Info                 : Digital Theater Systems
    Commercial name             : DTS-HD Master Audio
    Codec ID                    : A_DTS
    Duration                    : 2 h 0 min
    Bit rate mode               : Variable
    Bit rate                    : 2 211 kb/s
    Channel(s)                  : 6 channels
    Channel layout              : C L R Ls Rs LFE
    Sampling rate               : 48.0 kHz
    Frame rate                  : 93.750 FPS (512 SPF)
    Bit depth                   : 16 bits
    Compression mode            : Lossless
    Stream size                 : 1.86 GiB (6%)
    Language                    : English
    Default                     : No
    Forced                      : No

    Audio #4
    ID                          : 5
    Format                      : AC-3
    Format/Info                 : Audio Coding 3
    Commercial name             : Dolby Digital
    Codec ID                    : A_AC3
    Duration                    : 2 h 0 min
    Bit rate mode               : Constant
    Bit rate                    : 640 kb/s
    Channel(s)                  : 6 channels
    Channel layout              : L R C LFE Ls Rs
    Sampling rate               : 48.0 kHz
    Frame rate                  : 31.250 FPS (1536 SPF)
    Compression mode            : Lossy
    Delay relative to video     : 15 ms
    Stream size                 : 551 MiB (2%)
    Language                    : Spanish
    Service kind                : Complete Main
    Default                     : Yes
    Forced                      : No

    Text
    ID                          : 6
    Format                      : PGS
    Muxing mode                 : zlib
    Codec ID                    : S_HDMV/PGS
    Codec ID/Info               : Picture based subtitle format used on BDs/HD-DVDs
    Duration                    : 1 h 55 min
    Bit rate                    : 47.9 kb/s
    Count of elements           : 4433
    Stream size                 : 39.5 MiB (0%)
    Language                    : Spanish
    Default                     : No
    Forced                      : No

    Menu
    00:00:00.000                : en:Chapter 1
    00:07:34.412                : en:Chapter 2
    00:17:16.410                : en:Chapter 3
    00:24:21.001                : en:Chapter 4
    00:31:08.116                : en:Chapter 5
    00:34:48.503                : en:Chapter 6
    00:44:28.165                : en:Chapter 7
    00:50:55.302                : en:Chapter 8
    00:55:40.253                : en:Chapter 9
    01:00:16.613                : en:Chapter 10
    01:11:42.131                : en:Chapter 11
    01:18:30.497                : en:Chapter 12
    01:24:23.475                : en:Chapter 13
    01:33:17.967                : en:Chapter 14
    01:38:05.087                : en:Chapter 15
    01:47:10.715                : en:Chapter 16

  • Peso: 32.9 GiB

Sinopsis

Mark Zuckerberg, alumno de Harvard y genio de la programación, se sienta a su ordenador y con empeño y entusiasmo comienza a desarrollar una nueva idea. En un furor de blogging y programación, lo que comenzó en la habitación de su colegio mayor pronto se convirtió en una red social global y una revolución en la comunicación. Seis años y 500 millones de amigos después, Mark Zuckerberg es el billonario más joven de la historia. Pero para este emprendedor, el éxito ha supuesto complicaciones personales y legales…

Ficha técnica

Video trailer de la película

Enlaces de descarga

Rip de Bluray

Descargar The Social Network (2010) REMUX 4K HDR Latino – CMHDD


Aportes de DPeliculasHDmega la pass es:dpeliculashdmega.org Aportes de CinemaniaHD la pass es:cinemaniahdd.com
Guardado en : Drama

Películas relacionadas

  • Togo (2022) NF WEB-DL 1080p Latino

    Togo (2022) NF WEB-DL 1080p Latino

    2022
    Togo (2022) NF WEB-DL 1080p Latino

    1h 35m 2022

    Descargar Togo (2022) NF WEB-DL 1080p Latino. Los narcos de poca monta están copando las calles de Montevideo...

    Director: Adrián Caetano

    Género: Crimen

    Actores: Tito Prieto

  • El Ultimo Juego (2021) WEB-DL 1080p Latino

    El Ultimo Juego (2021) WEB-DL 1080p Latino

    2021
    El Ultimo Juego (2021) WEB-DL 1080p Latino

    1h 21m 2021

    Descargar El Ultimo Juego (2021) WEB-DL 1080p Latino. 6 extraños se despiertan dentro de una habitación...

    Director: John David Moffat IV

    Género: Drama

    Actores: Yasmin Irvine

descargar The Social Network (2010) REMUX 4K HDR Latino – CMHDD 4K HDR 1080p gratis, The Social Network (2010) REMUX 4K HDR Latino – CMHDD 4K HDR mega 1 link, The Social Network (2010) REMUX 4K HDR Latino – CMHDD 4K HDR pelicula completa, descargar The Social Network (2010) REMUX 4K HDR Latino – CMHDD 4K HDR gratis en mega.

The Social Network (2010) REMUX 4K HDR Latino – CMHDD pelicula full hd, The Social Network (2010) REMUX 4K HDR Latino – CMHDD mega latino, The Social Network (2010) REMUX 4K HDR Latino – CMHDD 4k latino, The Social Network (2010) REMUX 4K HDR Latino – CMHDD pelicula completa, The Social Network (2010) REMUX 4K HDR Latino – CMHDD descargar gratis, descargar The Social Network (2010) REMUX 4K HDR Latino – CMHDD pelicula latino, The Social Network (2010) REMUX 4K HDR Latino – CMHDD 1 link mega, The Social Network (2010) REMUX 4K HDR Latino – CMHDD 1 link google drive, The Social Network (2010) REMUX 4K HDR Latino – CMHDD hd 1080p latino.
Comentarios 0