×

¿Problemas para descargar con Mozilla, EDGE? Deshabilita la opción "Abrir vinculos en una pestaña nueva" tal como lo muestra ésta imagen.

La Red Social (2010) OPEN MATTE Web-DL 1080p Latino

374 vistas

Información de La Red Social (2010) OPEN MATTE Web-DL 1080p Latino

Datos de la película

  • Calidad: WEBDL
  • Audio: Español Latino AC3 5.1 BLURAY - Ingles DTS 5.1 BLURAY
  • Subtitulos: Español Latino SRT - Ingles SRT
  • Resolución: 1920x1080p
  • Formato: MKV
  • Codec: H.264
  • Encoder: CinefiloCool
  • Mediainfo: Clic para Mostrar Datos Ver
  • Red Social (2010) OPEN MATTE Web 1080p Latino-CMHDD.mkv
    Format                      : Matroska
    Format version              : Version 4
    File size                   : 8.30 GiB
    Duration                    : 2 h 0 min
    Overall bit rate            : 9 860 kb/s
    Movie name                  : The Social Network (2010) CinemaniaHDD.Net
    Encoded date                : UTC 2021-04-10 17:32:00
    Writing application         : mkvmerge v51.0.0 ('I Wish') 64-bit
    Writing library             : libebml v1.4.0 + libmatroska v1.6.2
    Attachments                 : CINEMANIAHD.png

    Video
    ID                          : 1
    Format                      : AVC
    Format/Info                 : Advanced Video Codec
    Format profile              : High@L4.1
    Format settings             : CABAC / 4 Ref Frames
    Format settings, CABAC      : Yes
    Format settings, Reference  : 4 frames
    Codec ID                    : V_MPEG4/ISO/AVC
    Duration                    : 2 h 0 min
    Bit rate                    : 7 901 kb/s
    Width                       : 1 920 pixels
    Height                      : 1 080 pixels
    Display aspect ratio        : 16:9
    Frame rate mode             : Constant
    Frame rate                  : 23.976 (24000/1001) FPS
    Color space                 : YUV
    Chroma subsampling          : 4:2:0
    Bit depth                   : 8 bits
    Scan type                   : Progressive
    Bits/(Pixel*Frame)          : 0.159
    Stream size                 : 6.65 GiB (80%)
    Title                       : Web Open Matte [CinemaniaHDD]
    Writing library             : x264 core 157 r2935 545de2f
    Encoding settings           : cabac=1 / ref=4 / deblock=1:-3:-3 / analyse=0x3:0x133 / me=umh / subme=11 / psy=1 / psy_rd=1.10:0.00 / mixed_ref=1 / me_range=32 / chroma_me=1 / trellis=2 / 8x8dct=1 / cqm=0 / deadzone=21,11 / fast_pskip=1 / chroma_qp_offset=-2 / threads=12 / lookahead_threads=1 / sliced_threads=0 / nr=0 / decimate=1 / interlaced=0 / bluray_compat=0 / constrained_intra=0 / bframes=8 / b_pyramid=2 / b_adapt=2 / b_bias=0 / direct=1 / weightb=1 / open_gop=0 / weightp=2 / keyint=240 / keyint_min=23 / scenecut=40 / intra_refresh=0 / rc_lookahead=40 / rc=crf / mbtree=0 / crf=16.0 / qcomp=0.60 / qpmin=0 / qpmax=69 / qpstep=4 / vbv_maxrate=50000 / vbv_bufsize=62500 / crf_max=0.0 / nal_hrd=none / filler=0 / ip_ratio=1.40 / pb_ratio=1.30 / aq=1:0.90
    Default                     : Yes
    Forced                      : Yes
    Color range                 : Limited
    Color primaries             : BT.709
    Transfer characteristics    : BT.709
    Matrix coefficients         : BT.709

    Audio #1
    ID                          : 2
    Format                      : AC-3
    Format/Info                 : Audio Coding 3
    Commercial name             : Dolby Digital
    Codec ID                    : A_AC3
    Duration                    : 2 h 0 min
    Bit rate mode               : Constant
    Bit rate                    : 448 kb/s
    Channel(s)                  : 6 channels
    Channel layout              : L R C LFE Ls Rs
    Sampling rate               : 48.0 kHz
    Frame rate                  : 31.250 FPS (1536 SPF)
    Compression mode            : Lossy
    Stream size                 : 386 MiB (5%)
    Title                       : Español Latino [CinemaniaHDD]
    Language                    : Spanish
    Service kind                : Complete Main
    Default                     : Yes
    Forced                      : Yes

    Audio #2
    ID                          : 3
    Format                      : DTS
    Format/Info                 : Digital Theater Systems
    Codec ID                    : A_DTS
    Duration                    : 2 h 0 min
    Bit rate mode               : Constant
    Bit rate                    : 1 509 kb/s
    Channel(s)                  : 6 channels
    Channel layout              : C L R Ls Rs LFE
    Sampling rate               : 48.0 kHz
    Frame rate                  : 93.750 FPS (512 SPF)
    Bit depth                   : 24 bits
    Compression mode            : Lossy
    Stream size                 : 1.27 GiB (15%)
    Title                       : Ingles [CinemaniaHDD]
    Language                    : English
    Default                     : No
    Forced                      : No

    Text #1
    ID                          : 4
    Format                      : UTF-8
    Codec ID                    : S_TEXT/UTF8
    Codec ID/Info               : UTF-8 Plain Text
    Duration                    : 1 h 48 min
    Bit rate                    : 0 b/s
    Count of elements           : 9
    Stream size                 : 197 Bytes (0%)
    Title                       : Forzados-SRT [CinemaniaHDD]
    Language                    : Spanish
    Default                     : Yes
    Forced                      : Yes

    Text #2
    ID                          : 5
    Format                      : UTF-8
    Codec ID                    : S_TEXT/UTF8
    Codec ID/Info               : UTF-8 Plain Text
    Duration                    : 2 h 0 min
    Bit rate                    : 80 b/s
    Count of elements           : 2215
    Stream size                 : 70.5 KiB (0%)
    Title                       : Español-SRT [CinemaniaHDD]
    Language                    : Spanish
    Default                     : No
    Forced                      : No

    Text #3
    ID                          : 6
    Format                      : UTF-8
    Codec ID                    : S_TEXT/UTF8
    Codec ID/Info               : UTF-8 Plain Text
    Duration                    : 1 h 53 min
    Bit rate                    : 110 b/s
    Count of elements           : 2285
    Stream size                 : 91.4 KiB (0%)
    Title                       : Ingles-SRT [CinemaniaHDD]
    Language                    : English
    Default                     : No
    Forced                      : No

    Menu
    00:00:00.000                : :Chapter 1
    00:07:33.203                : :Chapter 2
    00:17:15.368                : :Chapter 3
    00:24:19.792                : :Chapter 4
    00:31:07.032                : :Chapter 5
    00:34:47.586                : :Chapter 6
    00:44:27.165                : :Chapter 7
    00:50:54.385                : :Chapter 8
    00:55:39.253                : :Chapter 9
    01:00:15.487                : :Chapter 10
    01:11:40.880                : :Chapter 11
    01:18:29.330                : :Chapter 12
    01:24:22.391                : :Chapter 13
    01:33:16.800                : :Chapter 14
    01:38:04.045                : :Chapter 15
    01:47:09.715                : :Chapter 16

  • Peso: 8.30 GiB

Sinopsis

Descargar La Red Social (2010) OPEN MATTE Web-DL 1080p Latino. Mark Zuckerberg, alumno de Harvard y genio de la programación, se sienta a su ordenador y con empeño y entusiasmo comienza a desarrollar una nueva idea. En un furor de blogging y programación, lo que comenzó en la habitación de su colegio mayor pronto se convirtió en una red social global y una revolución en la comunicación. Seis años y 500 millones de amigos después, Mark Zuckerberg es el billonario más joven de la historia. Pero para este emprendedor, el éxito ha supuesto complicaciones personales y legales…

Ficha técnica

Video trailer de la película

Enlaces de descarga

Rip de Bluray

Descargar La Red Social (2010) OPEN MATTE Web-DL 1080p Latino




Aportes de DPeliculasHDmega la pass es:dpeliculashdmega.org Aportes de CinemaniaHD la pass es:cinemaniahdd.com
Guardado en : Drama , OPEN MATTE

Películas relacionadas

  • Narvik (2022) NF WEB-DL 1080p Latino

    Narvik (2022) NF WEB-DL 1080p Latino

    2022
    Narvik (2022) NF WEB-DL 1080p Latino

    1h 48m 2022

    Descargar Narvik (2022) NF WEB-DL 1080p Latino. Abril de 1940. Los ojos del mundo están puestos en Narvik,...

    Director: Suzanne Svae-Johansen

    Género: Acción

    Actores: Torfinn Nag

  • Groundhog Day (1993) REMUX 4K HDR Latino – CMHDD

    Groundhog Day (1993) REMUX 4K HDR Latino – CMHDD

    1993
    Groundhog Day (1993) REMUX 4K HDR Latino – CMHDD

    1h 41m 1993

    Phil, hombre del tiempo de una cadena de televisión, es enviado un año más a Punxstawnwey, a cubrir...

    Director: Sam Hoffman

    Género: Comedia

    Actores: Willie Garson

  • A Few Good Men (1992) REMUX 4K HDR Latino – CMHDD

    A Few Good Men (1992) REMUX 4K HDR Latino – CMHDD

    1992
    A Few Good Men (1992) REMUX 4K HDR Latino – CMHDD

    2h 18m 1992

    El teniente Daniel Kaffee es un joven y prometedor abogado de la Marina que tiene una excelente reputación....

    Director: Rob Reiner

    Género: Drama

    Actores: Xander Berkeley

descargar La Red Social (2010) OPEN MATTE Web-DL 1080p Latino WEBDL 1080p gratis, La Red Social (2010) OPEN MATTE Web-DL 1080p Latino WEBDL mega 1 link, La Red Social (2010) OPEN MATTE Web-DL 1080p Latino WEBDL pelicula completa, descargar La Red Social (2010) OPEN MATTE Web-DL 1080p Latino WEBDL gratis en mega.

La Red Social (2010) OPEN MATTE Web-DL 1080p Latino pelicula full hd, La Red Social (2010) OPEN MATTE Web-DL 1080p Latino mega latino, La Red Social (2010) OPEN MATTE Web-DL 1080p Latino 4k latino, La Red Social (2010) OPEN MATTE Web-DL 1080p Latino pelicula completa, La Red Social (2010) OPEN MATTE Web-DL 1080p Latino descargar gratis, descargar La Red Social (2010) OPEN MATTE Web-DL 1080p Latino pelicula latino, La Red Social (2010) OPEN MATTE Web-DL 1080p Latino 1 link mega, La Red Social (2010) OPEN MATTE Web-DL 1080p Latino 1 link google drive, La Red Social (2010) OPEN MATTE Web-DL 1080p Latino hd 1080p latino.
Comentarios 0